999
DXF file: mb3228_40_70_90_M6.dxf
999
Pro/ENGINEER 2010280 by Parametric Technology Corporation
  0
SECTION
  2
HEADER
  9
$ACADVER
  1
AC1021
  9
$DWGCODEPAGE
  3
ANSI_1252
  9
$EXTMAX
 10
700.0
 20
495.0
 30
0.0
  9
$EXTMIN
 10
0.0
 20
-0.0
 30
0.0
  9
$LIMMIN
 10
0.0
 20
-0.0
  9
$LIMMAX
 10
700.0
 20
495.0
  9
$VIEWCTR
 10
350.0
 20
247.5
  9
$VIEWSIZE
 40
495.0
  9
$CLAYER
  8
0
  9
$LTSCALE
 40
38.5
  9
$CELTYPE
  6
BYLAYER
  9
$DIMSCALE
 40
1.0
  9
$DIMASZ
 40
5.8333333333
  9
$DIMEXO
 40
4.375
  9
$DIMDLI
 40
26.6
  9
$DIMEXE
 40
12.6
  9
$DIMCEN
 40
6.3
  9
$DIMLFAC
 40
1.0
  9
$DIMBLK
  1
_FILLED
  9
$DIMTXT
 40
4.1666666667
  9
$DIMTOL
 70
1
  9
$DIMLIM
 70
0
  9
$DIMTFAC
 40
1.0
  9
$DIMTP
 40
0.005
  9
$DIMTM
 40
0.005
  9
$PDMODE
 70
3
  9
$PDSIZE
 40
0.3125
  9
$HANDSEED
  5
43D
  9
$TILEMODE
 70
1
  9
$MEASUREMENT
 70
1
  9
$INSUNITS
 70
4
  0
ENDSEC
  0
SECTION
  2
CLASSES
  0
CLASS
  1
ACDBDICTIONARYWDFLT
  2
AcDbDictionaryWithDefault
  3
AutoCAD 2000
 90
0
 91
1
280
0
281
0
  0
CLASS
  1
ACDBPLACEHOLDER
  2
AcDbPlaceHolder
  3
AutoCAD 2000
 90
0
 91
1
280
0
281
0
  0
CLASS
  1
LAYOUT
  2
AcDbLayout
  3
AutoCAD 2000
 90
0
 91
0
280
0
281
0
  0
ENDSEC
  0
SECTION
  2
TABLES
  0
TABLE
  2
VPORT
  5
8
100
AcDbSymbolTable
 70
2
  0
VPORT
  5
1F4
100
AcDbSymbolTableRecord
100
AcDbViewportTableRecord
  2
*ACTIVE
 70
0
 10
0.0
 20
0.0
 11
1.0
 21
1.0
 12
350.0
 22
247.5
 13
0.0
 23
0.0
 14
1.0
 24
1.0
 15
0.0
 25
0.0
 16
0.0
 26
0.0
 36
1.0
 17
0.0
 27
0.0
 37
0.0
 40
495.0
 41
1.4141414141
 42
50.0
 43
0.0
 44
0.0
 50
0.0
 51
0.0
 71
0
 72
100
 73
1
 74
1
 75
0
 76
0
 77
0
 78
0
  0
ENDTAB
  0
TABLE
  2
LTYPE
  5
5
100
AcDbSymbolTable
 70
6
  0
LTYPE
  5
14
100
AcDbSymbolTableRecord
100
AcDbLinetypeTableRecord
  2
BYBLOCK
 70
0
  3

 72
65
 73
0
 40
0.0
  0
LTYPE
  5
15
100
AcDbSymbolTableRecord
100
AcDbLinetypeTableRecord
  2
BYLAYER
 70
0
  3

 72
65
 73
0
 40
0.0
  0
LTYPE
  5
16
100
AcDbSymbolTableRecord
100
AcDbLinetypeTableRecord
  2
CONTINUOUS
 70
64
  3
Solid line
 72
65
 73
0
 40
0.0
  0
LTYPE
  5
1F5
100
AcDbSymbolTableRecord
100
AcDbLinetypeTableRecord
  2
CENTER
 70
64
  3
____ _ ____ _ ____ _ ____ _ ____ _ ____ _ ____
 72
65
 73
4
 40
0.6
 49
0.375
 74
0
 49
-0.075
 74
0
 49
0.075
 74
0
 49
-0.075
 74
0
  0
LTYPE
  5
1F6
100
AcDbSymbolTableRecord
100
AcDbLinetypeTableRecord
  2
HIDDEN
 70
64
  3
- - - - - - - - - - - - - - - - - - - -
 72
65
 73
2
 40
0.2
 49
0.1
 74
0
 49
-0.1
 74
0
  0
LTYPE
  5
1F7
100
AcDbSymbolTableRecord
100
AcDbLinetypeTableRecord
  2
PHANTOM
 70
64
  3
_____ _ _ _____ _ _ _____ _ _ _____
 72
65
 73
6
 40
0.8
 49
0.45
 74
0
 49
-0.05
 74
0
 49
0.1
 74
0
 49
-0.05
 74
0
 49
0.1
 74
0
 49
-0.05
 74
0
  0
LTYPE
  5
1F8
100
AcDbSymbolTableRecord
100
AcDbLinetypeTableRecord
  2
DOT
 70
64
  3
. . . . . . . . . . . . . . . . . . . .
 72
65
 73
2
 40
0.2
 49
0.1
 74
0
 49
-0.1
 74
0
  0
LTYPE
  5
1F9
100
AcDbSymbolTableRecord
100
AcDbLinetypeTableRecord
  2
DASHED
 70
64
  3
- - - - - - - - - - - - - - - - - - - -
 72
65
 73
2
 40
0.2
 49
0.1
 74
0
 49
-0.1
 74
0
  0
ENDTAB
  0
TABLE
  2
LAYER
  5
2
100
AcDbSymbolTable
 70
36
  0
LAYER
  5
10
100
AcDbSymbolTableRecord
100
AcDbLayerTableRecord
  2
0
 70
0
 62
7
  6
CONTINUOUS
370
-3
390
F
  0
LAYER
  5
1FA
100
AcDbSymbolTableRecord
100
AcDbLayerTableRecord
  2
DEFAULT_1
 70
0
 62
7
  6
CENTER
370
-3
390
F
  0
LAYER
  5
1FB
100
AcDbSymbolTableRecord
100
AcDbLayerTableRecord
  2
DEFAULT_2
 70
0
 62
8
  6
HIDDEN
370
-3
390
F
  0
LAYER
  5
1FC
100
AcDbSymbolTableRecord
100
AcDbLayerTableRecord
  2
DEFAULT_3
 70
0
 62
7
  6
PHANTOM
370
-3
390
F
  0
LAYER
  5
1FD
100
AcDbSymbolTableRecord
100
AcDbLayerTableRecord
  2
BEZUGSACHSEN
 70
0
 62
7
  6
CONTINUOUS
370
-3
390
F
  0
LAYER
  5
1FE
100
AcDbSymbolTableRecord
100
AcDbLayerTableRecord
  2
BEZUGSEBENEN
 70
0
 62
7
  6
CONTINUOUS
370
-3
390
F
  0
LAYER
  5
1FF
100
AcDbSymbolTableRecord
100
AcDbLayerTableRecord
  2
BLATT1_ANSICHT_ABTRIEB
 70
0
 62
7
  6
CONTINUOUS
370
-3
390
F
  0
LAYER
  5
200
100
AcDbSymbolTableRecord
100
AcDbLayerTableRecord
  2
BLATT1_ANSICHT_ANTRIEB
 70
0
 62
7
  6
CONTINUOUS
370
-3
390
F
  0
LAYER
  5
201
100
AcDbSymbolTableRecord
100
AcDbLayerTableRecord
  2
BLATT1_ANSICHT_MITTE
 70
0
 62
7
  6
CONTINUOUS
370
-3
390
F
  0
LAYER
  5
202
100
AcDbSymbolTableRecord
100
AcDbLayerTableRecord
  2
BLATT2_3D_ANSICHT
 70
0
 62
7
  6
CONTINUOUS
370
-3
390
F
  0
LAYER
  5
203
100
AcDbSymbolTableRecord
100
AcDbLayerTableRecord
  2
BOHRUNGEN
 70
0
 62
7
  6
CONTINUOUS
370
-3
390
F
  0
LAYER
  5
204
100
AcDbSymbolTableRecord
100
AcDbLayerTableRecord
  2
FASEN
 70
0
 62
7
  6
CONTINUOUS
370
-3
390
F
  0
LAYER
  5
205
100
AcDbSymbolTableRecord
100
AcDbLayerTableRecord
  2
GEWINDE
 70
0
 62
7
  6
CONTINUOUS
370
-3
390
F
  0
LAYER
  5
206
100
AcDbSymbolTableRecord
100
AcDbLayerTableRecord
  2
HILFEN
 70
0
 62
7
  6
CONTINUOUS
370
-3
390
F
  0
LAYER
  5
207
100
AcDbSymbolTableRecord
100
AcDbLayerTableRecord
  2
KURVEN
 70
0
 62
7
  6
CONTINUOUS
370
-3
390
F
  0
LAYER
  5
208
100
AcDbSymbolTableRecord
100
AcDbLayerTableRecord
  2
PLAZIERUNG
 70
0
 62
7
  6
CONTINUOUS
370
-3
390
F
  0
LAYER
  5
209
100
AcDbSymbolTableRecord
100
AcDbLayerTableRecord
  2
RUNDUNGEN
 70
0
 62
7
  6
CONTINUOUS
370
-3
390
F
  0
LAYER
  5
20A
100
AcDbSymbolTableRecord
100
AcDbLayerTableRecord
  2
TEIL_STARTBEZUEGE
 70
0
 62
7
  6
CONTINUOUS
370
-3
390
F
  0
LAYER
  5
20B
100
AcDbSymbolTableRecord
100
AcDbLayerTableRecord
  2
ZEICHNUNGSBEMASSUNGEN
 70
0
 62
7
  6
CONTINUOUS
370
-3
390
F
  0
ENDTAB
  0
TABLE
  2
STYLE
  5
3
100
AcDbSymbolTable
 70
1
  0
STYLE
  5
11
100
AcDbSymbolTableRecord
100
AcDbTextStyleTableRecord
  2
STANDARD
 70
0
 40
0.0
 41
0.7
 50
0.0
 71
0
 42
0.2
  3
txt
  4

  0
STYLE
  5
20C
100
AcDbSymbolTableRecord
100
AcDbTextStyleTableRecord
  2
TEXTSTYLE_1
 70
0
 40
0.0
 41
0.8
 50
0.0
 71
0
 42
0.2
  3
gdt
  4

  0
STYLE
  5
20D
100
AcDbSymbolTableRecord
100
AcDbTextStyleTableRecord
  2
TEXTSTYLE_2
 70
0
 40
0.0
 41
0.7
 50
0.0
 71
0
 42
0.2
  3
gdt
  4

  0
STYLE
  5
20E
100
AcDbSymbolTableRecord
100
AcDbTextStyleTableRecord
  2
TEXTSTYLE_3
 70
0
 40
0.0
 41
0.6
 50
0.0
 71
0
 42
0.2
  3
txt
  4

  0
ENDTAB
  0
TABLE
  2
VIEW
  5
6
100
AcDbSymbolTable
 70
0
  0
ENDTAB
  0
TABLE
  2
UCS
  5
7
100
AcDbSymbolTable
 70
0
  0
ENDTAB
  0
TABLE
  2
APPID
  5
9
100
AcDbSymbolTable
 70
1
  0
APPID
  5
20F
100
AcDbSymbolTableRecord
100
AcDbRegAppTableRecord
  2
ACAD
 70
0
  0
ENDTAB
  0
TABLE
  2
BLOCK_RECORD
  5
1
100
AcDbSymbolTable
 70
0
  0
BLOCK_RECORD
  5
210
100
AcDbSymbolTableRecord
100
AcDbBlockTableRecord
  2
*Model_Space
  0
BLOCK_RECORD
  5
211
100
AcDbSymbolTableRecord
100
AcDbBlockTableRecord
  2
*Paper_Space
  0
BLOCK_RECORD
  5
212
100
AcDbSymbolTableRecord
100
AcDbBlockTableRecord
  2
_FILLED
  0
BLOCK_RECORD
  5
213
100
AcDbSymbolTableRecord
100
AcDbBlockTableRecord
  2
_DOTBLANK
  0
BLOCK_RECORD
  5
214
100
AcDbSymbolTableRecord
100
AcDbBlockTableRecord
  2
*D0
  0
BLOCK_RECORD
  5
215
100
AcDbSymbolTableRecord
100
AcDbBlockTableRecord
  2
*D1
  0
BLOCK_RECORD
  5
216
100
AcDbSymbolTableRecord
100
AcDbBlockTableRecord
  2
*D2
  0
BLOCK_RECORD
  5
217
100
AcDbSymbolTableRecord
100
AcDbBlockTableRecord
  2
*D3
  0
BLOCK_RECORD
  5
218
100
AcDbSymbolTableRecord
100
AcDbBlockTableRecord
  2
*D4
  0
BLOCK_RECORD
  5
219
100
AcDbSymbolTableRecord
100
AcDbBlockTableRecord
  2
*D5
  0
BLOCK_RECORD
  5
21A
100
AcDbSymbolTableRecord
100
AcDbBlockTableRecord
  2
*D6
  0
BLOCK_RECORD
  5
21B
100
AcDbSymbolTableRecord
100
AcDbBlockTableRecord
  2
*D7
  0
BLOCK_RECORD
  5
21C
100
AcDbSymbolTableRecord
100
AcDbBlockTableRecord
  2
*D8
  0
BLOCK_RECORD
  5
21D
100
AcDbSymbolTableRecord
100
AcDbBlockTableRecord
  2
*D9
  0
BLOCK_RECORD
  5
21E
100
AcDbSymbolTableRecord
100
AcDbBlockTableRecord
  2
*D10
  0
BLOCK_RECORD
  5
21F
100
AcDbSymbolTableRecord
100
AcDbBlockTableRecord
  2
*D11
  0
BLOCK_RECORD
  5
220
100
AcDbSymbolTableRecord
100
AcDbBlockTableRecord
  2
*D12
  0
BLOCK_RECORD
  5
221
100
AcDbSymbolTableRecord
100
AcDbBlockTableRecord
  2
*D13
  0
BLOCK_RECORD
  5
222
100
AcDbSymbolTableRecord
100
AcDbBlockTableRecord
  2
*D14
  0
BLOCK_RECORD
  5
223
100
AcDbSymbolTableRecord
100
AcDbBlockTableRecord
  2
*D15
  0
BLOCK_RECORD
  5
224
100
AcDbSymbolTableRecord
100
AcDbBlockTableRecord
  2
*D16
  0
BLOCK_RECORD
  5
225
100
AcDbSymbolTableRecord
100
AcDbBlockTableRecord
  2
*D17
  0
BLOCK_RECORD
  5
226
100
AcDbSymbolTableRecord
100
AcDbBlockTableRecord
  2
*D18
  0
BLOCK_RECORD
  5
227
100
AcDbSymbolTableRecord
100
AcDbBlockTableRecord
  2
*D19
  0
BLOCK_RECORD
  5
228
100
AcDbSymbolTableRecord
100
AcDbBlockTableRecord
  2
*D20
  0
BLOCK_RECORD
  5
229
100
AcDbSymbolTableRecord
100
AcDbBlockTableRecord
  2
*D21
  0
BLOCK_RECORD
  5
22A
100
AcDbSymbolTableRecord
100
AcDbBlockTableRecord
  2
*D22
  0
BLOCK_RECORD
  5
22B
100
AcDbSymbolTableRecord
100
AcDbBlockTableRecord
  2
*D23
  0
BLOCK_RECORD
  5
22C
100
AcDbSymbolTableRecord
100
AcDbBlockTableRecord
  2
*D24
  0
BLOCK_RECORD
  5
22D
100
AcDbSymbolTableRecord
100
AcDbBlockTableRecord
  2
*D25
  0
BLOCK_RECORD
  5
22E
100
AcDbSymbolTableRecord
100
AcDbBlockTableRecord
  2
*D26
  0
ENDTAB
  0
TABLE
  2
DIMSTYLE
  5
A
100
AcDbSymbolTable
 70
1
100
AcDbDimStyleTable
 71
0
  0
DIMSTYLE
105
22F
100
AcDbSymbolTableRecord
100
AcDbDimStyleTableRecord
  2
STANDARD
 70
0
  3

  4

 40
1.0
 41
5.8333333333
 42
0.0625
 43
0.38
 44
0.18
 45
0.0
 46
0.0
 47
0.005
 48
0.005
140
4.1666666667
141
0.09
142
0.0
143
25.4
144
1.0
145
0.0
146
1.0
147
0.09
 71
1.0
 72
0.0
 73
0
 74
0
 75
0
 76
0
 77
1
 78
8
170
0
171
2
172
0
173
0
174
0
175
0
176
0
177
0
178
5
270
2
271
3
272
3
273
2
274
2
275
0
280
0
281
0
282
0
283
1
284
8
285
0
286
0
287
3
288
0
340
11
341
212
342
212
343
212
344
212
  0
DIMSTYLE
105
230
100
AcDbSymbolTableRecord
100
AcDbDimStyleTableRecord
  2
DIMSTYLE_1
 70
0
  3

  4

 40
1.0
 41
5.8333333333
 42
0.0625
 43
0.38
 44
0.18
 45
0.0
 46
0.0
 47
0.5
 48
0.5
140
4.1666666667
141
0.09
142
0.0
143
25.4
144
1.0
145
0.0
146
1.0
147
0.09
 71
0.0
 72
0.0
 73
0
 74
0
 75
0
 76
0
 77
1
 78
8
170
0
171
2
172
0
173
0
174
0
175
0
176
0
177
0
178
5
270
2
271
3
272
3
273
2
274
2
275
0
280
0
281
0
282
0
283
1
284
8
285
0
286
0
287
3
288
0
340
11
341
212
342
212
343
212
344
212
  0
DIMSTYLE
105
231
100
AcDbSymbolTableRecord
100
AcDbDimStyleTableRecord
  2
DIMSTYLE_2
 70
0
  3

  4

 40
1.0
 41
5.8333333333
 42
0.0625
 43
0.38
 44
0.18
 45
0.0
 46
0.0
 47
0.3
 48
0.3
140
4.1666666667
141
0.09
142
0.0
143
25.4
144
1.0
145
0.0
146
1.0
147
0.09
 71
0.0
 72
0.0
 73
0
 74
0
 75
0
 76
0
 77
1
 78
8
170
0
171
2
172
0
173
0
174
0
175
0
176
0
177
0
178
5
270
2
271
3
272
3
273
2
274
2
275
0
280
0
281
0
282
0
283
1
284
8
285
0
286
0
287
3
288
0
340
11
341
212
342
212
343
212
344
212
  0
DIMSTYLE
105
232
100
AcDbSymbolTableRecord
100
AcDbDimStyleTableRecord
  2
DIMSTYLE_3
 70
0
  3

  4

 40
1.0
 41
5.8333333333
 42
0.0625
 43
0.38
 44
0.18
 45
0.0
 46
0.0
 47
0.0
 48
0.015
140
4.1666666667
141
0.09
142
0.0
143
25.4
144
1.0
145
0.0
146
1.0
147
0.09
 71
0.0
 72
0.0
 73
0
 74
0
 75
0
 76
0
 77
1
 78
8
170
0
171
2
172
0
173
0
174
0
175
0
176
0
177
0
178
5
270
2
271
3
272
3
273
2
274
2
275
0
280
0
281
0
282
0
283
1
284
8
285
0
286
0
287
3
288
0
340
11
341
212
342
212
343
212
344
212
  0
DIMSTYLE
105
233
100
AcDbSymbolTableRecord
100
AcDbDimStyleTableRecord
  2
DIMSTYLE_4
 70
0
  3

  4

 40
1.0
 41
5.8333333333
 42
0.0625
 43
0.38
 44
0.18
 45
0.0
 46
0.0
 47
0.2
 48
0.2
140
4.1666666667
141
0.09
142
0.0
143
25.4
144
1.0
145
0.0
146
1.0
147
0.09
 71
0.0
 72
0.0
 73
0
 74
0
 75
0
 76
0
 77
1
 78
8
170
0
171
2
172
0
173
0
174
0
175
0
176
0
177
0
178
5
270
2
271
3
272
3
273
2
274
2
275
0
280
0
281
0
282
0
283
1
284
8
285
0
286
0
287
3
288
0
340
11
341
212
342
212
343
212
344
212
  0
DIMSTYLE
105
234
100
AcDbSymbolTableRecord
100
AcDbDimStyleTableRecord
  2
DIMSTYLE_5
 70
0
  3

  4

 40
1.0
 41
5.8333333333
 42
0.0625
 43
0.38
 44
0.18
 45
0.0
 46
0.0
 47
0.1
 48
0.1
140
4.1666666667
141
0.09
142
0.0
143
25.4
144
1.0
145
0.0
146
1.0
147
0.09
 71
0.0
 72
0.0
 73
0
 74
0
 75
0
 76
0
 77
1
 78
8
170
0
171
2
172
0
173
0
174
0
175
0
176
0
177
0
178
5
270
2
271
3
272
3
273
2
274
2
275
0
280
0
281
0
282
0
283
1
284
8
285
0
286
0
287
3
288
0
340
11
341
212
342
212
343
212
344
212
  0
DIMSTYLE
105
235
100
AcDbSymbolTableRecord
100
AcDbDimStyleTableRecord
  2
DIMSTYLE_6
 70
0
  3

  4

 40
1.0
 41
5.8333333333
 42
0.0625
 43
0.38
 44
0.18
 45
0.0
 46
0.0
 47
0.3
 48
0.3
140
4.1666666667
141
0.09
142
0.0
143
25.4
144
1.0
145
0.0
146
1.0
147
0.09
 71
0.0
 72
0.0
 73
0
 74
0
 75
0
 76
0
 77
1
 78
8
170
0
171
2
172
0
173
0
174
0
175
0
176
0
177
0
178
5
270
2
271
3
272
3
273
2
274
2
275
0
280
0
281
0
282
0
283
1
284
8
285
0
286
0
287
3
288
0
340
11
341
212
342
212
343
212
344
212
  0
DIMSTYLE
105
236
100
AcDbSymbolTableRecord
100
AcDbDimStyleTableRecord
  2
DIMSTYLE_7
 70
0
  3

  4

 40
1.0
 41
5.8333333333
 42
0.0625
 43
0.38
 44
0.18
 45
0.0
 46
0.0
 47
0.05
 48
-0.02
140
4.1666666667
141
0.09
142
0.0
143
25.4
144
1.0
145
0.0
146
0.6
147
0.09
 71
1.0
 72
0.0
 73
0
 74
0
 75
0
 76
0
 77
1
 78
8
170
0
171
2
172
0
173
0
174
0
175
0
176
0
177
0
178
5
270
2
271
3
272
3
273
2
274
2
275
0
280
0
281
0
282
0
283
1
284
8
285
0
286
0
287
3
288
0
340
11
341
212
342
212
343
212
344
212
  0
DIMSTYLE
105
237
100
AcDbSymbolTableRecord
100
AcDbDimStyleTableRecord
  2
DIMSTYLE_8
 70
0
  3

  4

 40
1.0
 41
5.8333333333
 42
0.0625
 43
0.38
 44
0.18
 45
0.0
 46
0.0
 47
0.1
 48
0.1
140
4.1666666667
141
0.09
142
0.0
143
25.4
144
1.0
145
0.0
146
1.0
147
0.09
 71
0.0
 72
0.0
 73
0
 74
0
 75
0
 76
0
 77
1
 78
8
170
0
171
2
172
0
173
0
174
0
175
0
176
0
177
0
178
5
270
2
271
3
272
3
273
2
274
2
275
0
280
0
281
0
282
0
283
1
284
8
285
0
286
0
287
3
288
0
340
11
341
212
342
212
343
212
344
212
  0
ENDTAB
  0
ENDSEC
  0
SECTION
  2
BLOCKS
  0
BLOCK
  5
20
100
AcDbEntity
  8
0
100
AcDbBlockBegin
  2
*Model_Space
 70
0
 10
0.0
 20
0.0
 30
0.0
  3
*Model_Space
  1

  0
ENDBLK
  5
21
100
AcDbEntity
  8
0
100
AcDbBlockEnd
  0
BLOCK
  5
1C
100
AcDbEntity
  8
0
100
AcDbBlockBegin
  2
*Paper_Space
 70
0
 10
0.0
 20
0.0
 30
0.0
  3
*Paper_Space
  1

  0
ENDBLK
  5
1D
100
AcDbEntity
  8
0
100
AcDbBlockEnd
  0
BLOCK
  5
238
100
AcDbEntity
  8
0
100
AcDbBlockBegin
  2
_FILLED
 70
64
 10
0.0
 20
0.0
  3
_FILLED
  1

  0
SOLID
  5
239
100
AcDbEntity
  8
0
  6
BYBLOCK
 62
0
100
AcDbTrace
 10
0.0
 20
0.0
 11
-1.0
 21
0.125
 12
-1.0
 22
-0.125
 13
-1.0
 23
-0.125
  0
ENDBLK
  5
23A
100
AcDbEntity
  8
0
  6
BYBLOCK
 62
0
100
AcDbBlockEnd
  0
BLOCK
  5
23B
100
AcDbEntity
  8
0
100
AcDbBlockBegin
  2
_DOTBLANK
 70
64
 10
0.0
 20
0.0
  3
_DOTBLANK
  1

  0
CIRCLE
  5
23C
100
AcDbEntity
  8
0
  6
BYBLOCK
 62
0
100
AcDbCircle
 10
0.0
 20
0.0
 40
0.125
  0
LINE
  5
23D
100
AcDbEntity
  8
0
  6
BYBLOCK
 62
0
100
AcDbLine
 10
-1.0
 20
0.0
 11
0.0
 21
0.0
  0
ENDBLK
  5
23E
100
AcDbEntity
  8
0
  6
BYBLOCK
 62
0
100
AcDbBlockEnd
  0
BLOCK
  5
23F
100
AcDbEntity
  8
ZEICHNUNGSBEMASSUNGEN
100
AcDbBlockBegin
 62
2
  6
CONTINUOUS
  2
*D0
 70
65
 10
0.0
 20
0.0
  3
*D0
  1

  0
MTEXT
  5
240
100
AcDbEntity
  8
ZEICHNUNGSBEMASSUNGEN
100
AcDbMText
 62
5
  6
CONTINUOUS
  7
STANDARD
 71
2
 72
1
 10
348.0972876832
 20
429.128946751
 30
0.0
 11
1.0
 21
0.0
 31
0.0
 44
0.9
  1
141
 40
4.1666666667
 41
8.0357142857
  0
LINE
  5
241
100
AcDbEntity
  8
ZEICHNUNGSBEMASSUNGEN
100
AcDbLine
 62
2
  6
CONTINUOUS
 10
277.5972876832
 20
356.4206134176
 11
277.5972876832
 21
426.4206134176
  0
LINE
  5
242
100
AcDbEntity
  8
ZEICHNUNGSBEMASSUNGEN
100
AcDbLine
 62
2
  6
CONTINUOUS
 10
418.5972876832
 20
324.4206134176
 11
418.5972876832
 21
426.4206134176
  0
LINE
  5
243
100
AcDbEntity
  8
ZEICHNUNGSBEMASSUNGEN
100
AcDbLine
 62
2
  6
CONTINUOUS
 10
277.5972876832
 20
423.9206134176
 11
348.0972876832
 21
423.9206134176
  0
LINE
  5
244
100
AcDbEntity
  8
ZEICHNUNGSBEMASSUNGEN
100
AcDbLine
 62
2
  6
CONTINUOUS
 10
418.5972876832
 20
423.9206134176
 11
348.0972876832
 21
423.9206134176
  0
INSERT
  5
245
100
AcDbEntity
  8
ZEICHNUNGSBEMASSUNGEN
100
AcDbBlockReference
 62
2
  6
CONTINUOUS
  2
_FILLED
 10
277.5972876832
 20
423.9206134176
 41
5.8333333333
 42
5.8333333333
 43
5.8333333333
 50
180.0
  0
INSERT
  5
246
100
AcDbEntity
  8
ZEICHNUNGSBEMASSUNGEN
100
AcDbBlockReference
 62
2
  6
CONTINUOUS
  2
_FILLED
 10
418.5972876832
 20
423.9206134176
 41
5.8333333333
 42
5.8333333333
 43
5.8333333333
  0
ENDBLK
  5
247
100
AcDbEntity
  8
0
  6
BYBLOCK
 62
0
100
AcDbBlockEnd
  0
BLOCK
  5
248
100
AcDbEntity
  8
ZEICHNUNGSBEMASSUNGEN
100
AcDbBlockBegin
 62
2
  6
CONTINUOUS
  2
*D1
 70
65
 10
0.0
 20
0.0
  3
*D1
  1

  0
MTEXT
  5
249
100
AcDbEntity
  8
ZEICHNUNGSBEMASSUNGEN
100
AcDbMText
 62
5
  6
CONTINUOUS
  7
STANDARD
 71
2
 72
1
 10
297.5972876832
 20
249.128946751
 30
0.0
 11
1.0
 21
0.0
 31
0.0
 44
0.9
  1
40
 40
4.1666666667
 41
6.5476190476
  0
LINE
  5
24A
100
AcDbEntity
  8
ZEICHNUNGSBEMASSUNGEN
100
AcDbLine
 62
2
  6
CONTINUOUS
 10
277.5972876832
 20
274.753946751
 11
277.5972876832
 21
241.4206134176
  0
LINE
  5
24B
100
AcDbEntity
  8
ZEICHNUNGSBEMASSUNGEN
100
AcDbLine
 62
2
  6
CONTINUOUS
 10
317.5972876832
 20
305.253946751
 11
317.5972876832
 21
241.4206134176
  0
LINE
  5
24C
100
AcDbEntity
  8
ZEICHNUNGSBEMASSUNGEN
100
AcDbLine
 62
2
  6
CONTINUOUS
 10
277.5972876832
 20
243.9206134176
 11
297.5972876832
 21
243.9206134176
  0
LINE
  5
24D
100
AcDbEntity
  8
ZEICHNUNGSBEMASSUNGEN
100
AcDbLine
 62
2
  6
CONTINUOUS
 10
317.5972876832
 20
243.9206134176
 11
297.5972876832
 21
243.9206134176
  0
INSERT
  5
24E
100
AcDbEntity
  8
ZEICHNUNGSBEMASSUNGEN
100
AcDbBlockReference
 62
2
  6
CONTINUOUS
  2
_FILLED
 10
277.5972876832
 20
243.9206134176
 41
5.8333333333
 42
5.8333333333
 43
5.8333333333
 50
180.0
  0
INSERT
  5
24F
100
AcDbEntity
  8
ZEICHNUNGSBEMASSUNGEN
100
AcDbBlockReference
 62
2
  6
CONTINUOUS
  2
_FILLED
 10
317.5972876832
 20
243.9206134176
 41
5.8333333333
 42
5.8333333333
 43
5.8333333333
  0
ENDBLK
  5
250
100
AcDbEntity
  8
0
  6
BYBLOCK
 62
0
100
AcDbBlockEnd
  0
BLOCK
  5
251
100
AcDbEntity
  8
ZEICHNUNGSBEMASSUNGEN
100
AcDbBlockBegin
 62
2
  6
CONTINUOUS
  2
*D2
 70
65
 10
0.0
 20
0.0
  3
*D2
  1

  0
MTEXT
  5
252
100
AcDbEntity
  8
ZEICHNUNGSBEMASSUNGEN
100
AcDbMText
 62
5
  6
CONTINUOUS
  7
STANDARD
 71
2
 72
1
 10
298.0972876832
 20
412.4622800843
 30
0.0
 11
1.0
 21
0.0
 31
0.0
 44
0.9
  1
41
 40
4.1666666667
 41
5.6547619048
  0
LINE
  5
253
100
AcDbEntity
  8
ZEICHNUNGSBEMASSUNGEN
100
AcDbLine
 62
2
  6
CONTINUOUS
 10
277.5972876832
 20
365.5872800843
 11
277.5972876832
 21
409.753946751
  0
LINE
  5
254
100
AcDbEntity
  8
ZEICHNUNGSBEMASSUNGEN
100
AcDbLine
 62
2
  6
CONTINUOUS
 10
318.5972876832
 20
346.1688025626
 11
318.5972876832
 21
409.753946751
  0
LINE
  5
255
100
AcDbEntity
  8
ZEICHNUNGSBEMASSUNGEN
100
AcDbLine
 62
2
  6
CONTINUOUS
 10
277.5972876832
 20
407.253946751
 11
298.0972876832
 21
407.253946751
  0
LINE
  5
256
100
AcDbEntity
  8
ZEICHNUNGSBEMASSUNGEN
100
AcDbLine
 62
2
  6
CONTINUOUS
 10
318.5972876832
 20
407.253946751
 11
298.0972876832
 21
407.253946751
  0
INSERT
  5
257
100
AcDbEntity
  8
ZEICHNUNGSBEMASSUNGEN
100
AcDbBlockReference
 62
2
  6
CONTINUOUS
  2
_FILLED
 10
277.5972876832
 20
407.253946751
 41
5.8333333333
 42
5.8333333333
 43
5.8333333333
 50
180.0
  0
INSERT
  5
258
100
AcDbEntity
  8
ZEICHNUNGSBEMASSUNGEN
100
AcDbBlockReference
 62
2
  6
CONTINUOUS
  2
_FILLED
 10
318.5972876832
 20
407.253946751
 41
5.8333333333
 42
5.8333333333
 43
5.8333333333
  0
ENDBLK
  5
259
100
AcDbEntity
  8
0
  6
BYBLOCK
 62
0
100
AcDbBlockEnd
  0
BLOCK
  5
25A
100
AcDbEntity
  8
ZEICHNUNGSBEMASSUNGEN
100
AcDbBlockBegin
 62
2
  6
CONTINUOUS
  2
*D3
 70
65
 10
0.0
 20
0.0
  3
*D3
  1

  0
MTEXT
  5
25B
100
AcDbEntity
  8
ZEICHNUNGSBEMASSUNGEN
100
AcDbMText
 62
5
  6
CONTINUOUS
  7
STANDARD
 71
2
 72
1
 10
400.5972876832
 20
412.4622800843
 30
0.0
 11
1.0
 21
0.0
 31
0.0
 44
0.9
  1
36
 40
4.1666666667
 41
6.25
  0
LINE
  5
25C
100
AcDbEntity
  8
ZEICHNUNGSBEMASSUNGEN
100
AcDbLine
 62
2
  6
CONTINUOUS
 10
382.5972876832
 20
351.4206134176
 11
382.5972876832
 21
409.753946751
  0
LINE
  5
25D
100
AcDbEntity
  8
ZEICHNUNGSBEMASSUNGEN
100
AcDbLine
 62
2
  6
CONTINUOUS
 10
418.5972876832
 20
325.5872800843
 11
418.5972876832
 21
409.753946751
  0
LINE
  5
25E
100
AcDbEntity
  8
ZEICHNUNGSBEMASSUNGEN
100
AcDbLine
 62
2
  6
CONTINUOUS
 10
382.5972876832
 20
407.253946751
 11
400.5972876832
 21
407.253946751
  0
LINE
  5
25F
100
AcDbEntity
  8
ZEICHNUNGSBEMASSUNGEN
100
AcDbLine
 62
2
  6
CONTINUOUS
 10
418.5972876832
 20
407.253946751
 11
400.5972876832
 21
407.253946751
  0
INSERT
  5
260
100
AcDbEntity
  8
ZEICHNUNGSBEMASSUNGEN
100
AcDbBlockReference
 62
2
  6
CONTINUOUS
  2
_FILLED
 10
382.5972876832
 20
407.253946751
 41
5.8333333333
 42
5.8333333333
 43
5.8333333333
 50
180.0
  0
INSERT
  5
261
100
AcDbEntity
  8
ZEICHNUNGSBEMASSUNGEN
100
AcDbBlockReference
 62
2
  6
CONTINUOUS
  2
_FILLED
 10
418.5972876832
 20
407.253946751
 41
5.8333333333
 42
5.8333333333
 43
5.8333333333
  0
ENDBLK
  5
262
100
AcDbEntity
  8
0
  6
BYBLOCK
 62
0
100
AcDbBlockEnd
  0
BLOCK
  5
263
100
AcDbEntity
  8
0
100
AcDbBlockBegin
 62
2
  6
CONTINUOUS
  2
*D4
 70
65
 10
0.0
 20
0.0
  3
*D4
  1

  0
MTEXT
  5
264
100
AcDbEntity
  8
0
100
AcDbMText
 62
5
  6
CONTINUOUS
  7
TEXTSTYLE_2
 71
3
 72
1
 10
433.3889543498
 20
272.253946751
 30
0.0
 11
0.0
 21
1.0
 31
0.0
 44
0.9
  1
{\Fgdt;n}\Ftxt;16
 40
4.1666666667
 41
11.2103174603
  0
LINE
  5
265
100
AcDbEntity
  8
0
100
AcDbLine
 62
2
  6
CONTINUOUS
 10
419.4306210165
 20
323.5872800843
 11
441.0972876832
 21
323.5872800843
  0
LINE
  5
266
100
AcDbEntity
  8
0
100
AcDbLine
 62
2
  6
CONTINUOUS
 10
419.4306210165
 20
307.5872800843
 11
441.0972876832
 21
307.5872800843
  0
LINE
  5
267
100
AcDbEntity
  8
0
100
AcDbLine
 62
2
  6
CONTINUOUS
 10
438.5972876832
 20
323.5872800843
 11
438.5972876832
 21
315.5872800843
  0
LINE
  5
268
100
AcDbEntity
  8
0
100
AcDbLine
 62
2
  6
CONTINUOUS
 10
438.5972876832
 20
307.5872800843
 11
438.5972876832
 21
315.5872800843
  0
LINE
  5
269
100
AcDbEntity
  8
0
100
AcDbLine
 62
2
  6
CONTINUOUS
 10
438.5972876832
 20
315.5872800843
 11
438.5972876832
 21
261.0436292906
  0
INSERT
  5
26A
100
AcDbEntity
  8
0
100
AcDbBlockReference
 62
2
  6
CONTINUOUS
  2
_FILLED
 10
438.5972876832
 20
323.5872800843
 41
5.8333333333
 42
5.8333333333
 43
5.8333333333
 50
90.0
  0
INSERT
  5
26B
100
AcDbEntity
  8
0
100
AcDbBlockReference
 62
2
  6
CONTINUOUS
  2
_FILLED
 10
438.5972876832
 20
307.5872800843
 41
5.8333333333
 42
5.8333333333
 43
5.8333333333
 50
270.0
  0
ENDBLK
  5
26C
100
AcDbEntity
  8
0
  6
BYBLOCK
 62
0
100
AcDbBlockEnd
  0
BLOCK
  5
26D
100
AcDbEntity
  8
0
100
AcDbBlockBegin
 62
2
  6
CONTINUOUS
  2
*D5
 70
65
 10
0.0
 20
0.0
  3
*D5
  1

  0
MTEXT
  5
26E
100
AcDbEntity
  8
0
100
AcDbMText
 62
5
  6
CONTINUOUS
  7
STANDARD
 71
2
 72
1
 10
404.5972876832
 20
389.128946751
 30
0.0
 11
1.0
 21
0.0
 31
0.0
 44
0.9
  1
28
 40
4.1666666667
 41
6.5476190476
  0
LINE
  5
26F
100
AcDbEntity
  8
0
100
AcDbLine
 62
2
  6
CONTINUOUS
 10
418.5972876832
 20
324.4206134176
 11
418.5972876832
 21
386.4206134176
  0
LINE
  5
270
100
AcDbEntity
  8
0
100
AcDbLine
 62
2
  6
CONTINUOUS
 10
390.5972876832
 20
331.4206134176
 11
390.5972876832
 21
386.4206134176
  0
LINE
  5
271
100
AcDbEntity
  8
0
100
AcDbLine
 62
2
  6
CONTINUOUS
 10
418.5972876832
 20
383.9206134176
 11
404.5972876832
 21
383.9206134176
  0
LINE
  5
272
100
AcDbEntity
  8
0
100
AcDbLine
 62
2
  6
CONTINUOUS
 10
390.5972876832
 20
383.9206134176
 11
404.5972876832
 21
383.9206134176
  0
INSERT
  5
273
100
AcDbEntity
  8
0
100
AcDbBlockReference
 62
2
  6
CONTINUOUS
  2
_FILLED
 10
418.5972876832
 20
383.9206134176
 41
5.8333333333
 42
5.8333333333
 43
5.8333333333
  0
INSERT
  5
274
100
AcDbEntity
  8
0
100
AcDbBlockReference
 62
2
  6
CONTINUOUS
  2
_FILLED
 10
390.5972876832
 20
383.9206134176
 41
5.8333333333
 42
5.8333333333
 43
5.8333333333
 50
180.0
  0
ENDBLK
  5
275
100
AcDbEntity
  8
0
  6
BYBLOCK
 62
0
100
AcDbBlockEnd
  0
BLOCK
  5
276
100
AcDbEntity
  8
0
100
AcDbBlockBegin
 62
2
  6
CONTINUOUS
  2
*D6
 70
65
 10
0.0
 20
0.0
  3
*D6
  1

  0
MTEXT
  5
277
100
AcDbEntity
  8
0
100
AcDbMText
 62
5
  6
CONTINUOUS
  7
TEXTSTYLE_2
 71
2
 72
1
 10
448.3889543498
 20
315.5872800843
 30
0.0
 11
0.0
 21
1.0
 31
0.0
 44
0.9
  1
{\Fgdt;n}\Ftxt;30
 40
4.1666666667
 41
11.8055555556
  0
LINE
  5
278
100
AcDbEntity
  8
0
100
AcDbLine
 62
2
  6
CONTINUOUS
 10
391.4306210165
 20
330.5872800843
 11
456.0972876832
 21
330.5872800843
  0
LINE
  5
279
100
AcDbEntity
  8
0
100
AcDbLine
 62
2
  6
CONTINUOUS
 10
391.4306210165
 20
300.5872800843
 11
456.0972876832
 21
300.5872800843
  0
LINE
  5
27A
100
AcDbEntity
  8
0
100
AcDbLine
 62
2
  6
CONTINUOUS
 10
453.5972876832
 20
330.5872800843
 11
453.5972876832
 21
315.5872800843
  0
LINE
  5
27B
100
AcDbEntity
  8
0
100
AcDbLine
 62
2
  6
CONTINUOUS
 10
453.5972876832
 20
300.5872800843
 11
453.5972876832
 21
315.5872800843
  0
INSERT
  5
27C
100
AcDbEntity
  8
0
100
AcDbBlockReference
 62
2
  6
CONTINUOUS
  2
_FILLED
 10
453.5972876832
 20
330.5872800843
 41
5.8333333333
 42
5.8333333333
 43
5.8333333333
 50
90.0
  0
INSERT
  5
27D
100
AcDbEntity
  8
0
100
AcDbBlockReference
 62
2
  6
CONTINUOUS
  2
_FILLED
 10
453.5972876832
 20
300.5872800843
 41
5.8333333333
 42
5.8333333333
 43
5.8333333333
 50
270.0
  0
ENDBLK
  5
27E
100
AcDbEntity
  8
0
  6
BYBLOCK
 62
0
100
AcDbBlockEnd
  0
BLOCK
  5
27F
100
AcDbEntity
  8
0
100
AcDbBlockBegin
 62
2
  6
CONTINUOUS
  2
*D7
 70
65
 10
0.0
 20
0.0
  3
*D7
  1

  0
MTEXT
  5
280
100
AcDbEntity
  8
0
100
AcDbMText
 62
5
  6
CONTINUOUS
  7
STANDARD
 71
2
 72
1
 10
45.2591690673
 20
316.5872800843
 30
0.0
 11
0.0
 21
1.0
 31
0.0
 44
0.9
  1
18
 40
4.1666666667
 41
5.6547619048
  0
LINE
  5
281
100
AcDbEntity
  8
0
100
AcDbLine
 62
2
  6
CONTINUOUS
 10
108.8008357339
 20
325.5872800843
 11
47.9675024006
 21
325.5872800843
  0
LINE
  5
282
100
AcDbEntity
  8
0
100
AcDbLine
 62
2
  6
CONTINUOUS
 10
111.8167646267
 20
307.5872800843
 11
47.9675024006
 21
307.5872800843
  0
LINE
  5
283
100
AcDbEntity
  8
0
100
AcDbLine
 62
2
  6
CONTINUOUS
 10
50.4675024006
 20
325.5872800843
 11
50.4675024006
 21
316.5872800843
  0
LINE
  5
284
100
AcDbEntity
  8
0
100
AcDbLine
 62
2
  6
CONTINUOUS
 10
50.4675024006
 20
307.5872800843
 11
50.4675024006
 21
316.5872800843
  0
INSERT
  5
285
100
AcDbEntity
  8
0
100
AcDbBlockReference
 62
2
  6
CONTINUOUS
  2
_FILLED
 10
50.4675024006
 20
325.5872800843
 41
5.8333333333
 42
5.8333333333
 43
5.8333333333
 50
90.0
  0
INSERT
  5
286
100
AcDbEntity
  8
0
100
AcDbBlockReference
 62
2
  6
CONTINUOUS
  2
_FILLED
 10
50.4675024006
 20
307.5872800843
 41
5.8333333333
 42
5.8333333333
 43
5.8333333333
 50
270.0
  0
ENDBLK
  5
287
100
AcDbEntity
  8
0
  6
BYBLOCK
 62
0
100
AcDbBlockEnd
  0
BLOCK
  5
288
100
AcDbEntity
  8
0
100
AcDbBlockBegin
 62
2
  6
CONTINUOUS
  2
*D8
 70
65
 10
0.0
 20
0.0
  3
*D8
  1

  0
MTEXT
  5
289
100
AcDbEntity
  8
0
100
AcDbMText
 62
5
  6
CONTINUOUS
  7
STANDARD
 71
2
 72
1
 10
404.0972876832
 20
369.128946751
 30
0.0
 11
1.0
 21
0.0
 31
0.0
 44
0.9
  1
25
 40
4.1666666667
 41
6.25
  0
LINE
  5
28A
100
AcDbEntity
  8
0
100
AcDbLine
 62
2
  6
CONTINUOUS
 10
391.5972876832
 20
326.4206134176
 11
391.5972876832
 21
366.4206134176
  0
LINE
  5
28B
100
AcDbEntity
  8
0
100
AcDbLine
 62
2
  6
CONTINUOUS
 10
416.5972876832
 20
326.4206134176
 11
416.5972876832
 21
366.4206134176
  0
LINE
  5
28C
100
AcDbEntity
  8
0
100
AcDbLine
 62
2
  6
CONTINUOUS
 10
391.5972876832
 20
363.9206134176
 11
404.0972876832
 21
363.9206134176
  0
LINE
  5
28D
100
AcDbEntity
  8
0
100
AcDbLine
 62
2
  6
CONTINUOUS
 10
416.5972876832
 20
363.9206134176
 11
404.0972876832
 21
363.9206134176
  0
INSERT
  5
28E
100
AcDbEntity
  8
0
100
AcDbBlockReference
 62
2
  6
CONTINUOUS
  2
_FILLED
 10
391.5972876832
 20
363.9206134176
 41
5.8333333333
 42
5.8333333333
 43
5.8333333333
 50
180.0
  0
INSERT
  5
28F
100
AcDbEntity
  8
0
100
AcDbBlockReference
 62
2
  6
CONTINUOUS
  2
_FILLED
 10
416.5972876832
 20
363.9206134176
 41
5.8333333333
 42
5.8333333333
 43
5.8333333333
  0
ENDBLK
  5
290
100
AcDbEntity
  8
0
  6
BYBLOCK
 62
0
100
AcDbBlockEnd
  0
BLOCK
  5
291
100
AcDbEntity
  8
0
100
AcDbBlockBegin
 62
2
  6
CONTINUOUS
  2
*D9
 70
65
 10
0.0
 20
0.0
  3
*D9
  1

  0
MTEXT
  5
292
100
AcDbEntity
  8
0
100
AcDbMText
 62
5
  6
CONTINUOUS
  7
STANDARD
 71
1
 72
1
 10
438.5972876832
 20
379.128946751
 30
0.0
 11
1.0
 21
0.0
 31
0.0
 44
0.9
  1
2
 40
4.1666666667
 41
3.2738095238
  0
LINE
  5
293
100
AcDbEntity
  8
0
100
AcDbLine
 62
2
  6
CONTINUOUS
 10
418.5972876832
 20
324.4206134176
 11
418.5972876832
 21
376.4206134176
  0
LINE
  5
294
100
AcDbEntity
  8
0
100
AcDbLine
 62
2
  6
CONTINUOUS
 10
416.5972876832
 20
326.4206134176
 11
416.5972876832
 21
376.4206134176
  0
LINE
  5
295
100
AcDbEntity
  8
0
100
AcDbLine
 62
2
  6
CONTINUOUS
 10
418.5972876832
 20
373.9206134176
 11
441.871097207
 21
373.9206134176
  0
LINE
  5
296
100
AcDbEntity
  8
0
100
AcDbLine
 62
2
  6
CONTINUOUS
 10
441.871097207
 20
373.9206134176
 11
417.5972876832
 21
373.9206134176
  0
LINE
  5
297
100
AcDbEntity
  8
0
100
AcDbLine
 62
2
  6
CONTINUOUS
 10
416.5972876832
 20
373.9206134176
 11
406.5972876832
 21
373.9206134176
  0
LINE
  5
298
100
AcDbEntity
  8
0
100
AcDbLine
 62
2
  6
CONTINUOUS
 10
406.5972876832
 20
373.9206134176
 11
417.5972876832
 21
373.9206134176
  0
INSERT
  5
299
100
AcDbEntity
  8
0
100
AcDbBlockReference
 62
2
  6
CONTINUOUS
  2
_FILLED
 10
418.5972876832
 20
373.9206134176
 41
5.8333333333
 42
5.8333333333
 43
5.8333333333
 50
180.0
  0
INSERT
  5
29A
100
AcDbEntity
  8
0
100
AcDbBlockReference
 62
2
  6
CONTINUOUS
  2
_FILLED
 10
416.5972876832
 20
373.9206134176
 41
5.8333333333
 42
5.8333333333
 43
5.8333333333
  0
ENDBLK
  5
29B
100
AcDbEntity
  8
0
  6
BYBLOCK
 62
0
100
AcDbBlockEnd
  0
BLOCK
  5
29C
100
AcDbEntity
  8
0
100
AcDbBlockBegin
 62
2
  6
CONTINUOUS
  2
*D10
 70
65
 10
0.0
 20
0.0
  3
*D10
  1

  0
MTEXT
  5
29D
100
AcDbEntity
  8
0
100
AcDbMText
 62
5
  6
CONTINUOUS
  7
STANDARD
 71
2
 72
1
 10
112.1341690673
 20
379.128946751
 30
0.0
 11
1.0
 21
0.0
 31
0.0
 44
0.9
  1
5
 40
4.1666666667
 41
2.9761904762
  0
LINE
  5
29E
100
AcDbEntity
  8
0
100
AcDbLine
 62
2
  6
CONTINUOUS
 10
114.6341690673
 20
326.4206134176
 11
114.6341690673
 21
376.4206134176
  0
LINE
  5
29F
100
AcDbEntity
  8
0
100
AcDbLine
 62
2
  6
CONTINUOUS
 10
109.6341690673
 20
326.4206134176
 11
109.6341690673
 21
376.4206134176
  0
LINE
  5
2A0
100
AcDbEntity
  8
0
100
AcDbLine
 62
2
  6
CONTINUOUS
 10
114.6341690673
 20
373.9206134176
 11
124.6341690673
 21
373.9206134176
  0
LINE
  5
2A1
100
AcDbEntity
  8
0
100
AcDbLine
 62
2
  6
CONTINUOUS
 10
124.6341690673
 20
373.9206134176
 11
112.1341690673
 21
373.9206134176
  0
LINE
  5
2A2
100
AcDbEntity
  8
0
100
AcDbLine
 62
2
  6
CONTINUOUS
 10
109.6341690673
 20
373.9206134176
 11
99.6341690673
 21
373.9206134176
  0
LINE
  5
2A3
100
AcDbEntity
  8
0
100
AcDbLine
 62
2
  6
CONTINUOUS
 10
99.6341690673
 20
373.9206134176
 11
112.1341690673
 21
373.9206134176
  0
INSERT
  5
2A4
100
AcDbEntity
  8
0
100
AcDbBlockReference
 62
2
  6
CONTINUOUS
  2
_FILLED
 10
114.6341690673
 20
373.9206134176
 41
5.8333333333
 42
5.8333333333
 43
5.8333333333
 50
180.0
  0
INSERT
  5
2A5
100
AcDbEntity
  8
0
100
AcDbBlockReference
 62
2
  6
CONTINUOUS
  2
_FILLED
 10
109.6341690673
 20
373.9206134176
 41
5.8333333333
 42
5.8333333333
 43
5.8333333333
  0
ENDBLK
  5
2A6
100
AcDbEntity
  8
0
  6
BYBLOCK
 62
0
100
AcDbBlockEnd
  0
BLOCK
  5
2A7
100
AcDbEntity
  8
0
100
AcDbBlockBegin
 62
2
  6
CONTINUOUS
  2
*D11
 70
65
 10
0.0
 20
0.0
  3
*D11
  1

  0
MTEXT
  5
2A8
100
AcDbEntity
  8
0
100
AcDbMText
 62
5
  6
CONTINUOUS
  7
TEXTSTYLE_2
 71
3
 72
1
 10
245.7222876832
 20
298.141136476
 30
0.0
 11
0.0
 21
1.0
 31
0.0
 44
0.9
  1
{\Fgdt;n}\Ftxt;19
 40
4.1666666667
 41
11.2103174603
  0
LINE
  5
2A9
100
AcDbEntity
  8
0
100
AcDbLine
 62
2
  6
CONTINUOUS
 10
285.0972876832
 20
306.0872800843
 11
248.4306210165
 21
306.0872800843
  0
LINE
  5
2AA
100
AcDbEntity
  8
0
100
AcDbLine
 62
2
  6
CONTINUOUS
 10
285.0972876832
 20
325.0872800843
 11
248.4306210165
 21
325.0872800843
  0
LINE
  5
2AB
100
AcDbEntity
  8
0
100
AcDbLine
 62
2
  6
CONTINUOUS
 10
250.9306210165
 20
306.0872800843
 11
250.9306210165
 21
286.9308190156
  0
LINE
  5
2AC
100
AcDbEntity
  8
0
100
AcDbLine
 62
2
  6
CONTINUOUS
 10
250.9306210165
 20
286.9308190156
 11
250.9306210165
 21
315.5872800843
  0
LINE
  5
2AD
100
AcDbEntity
  8
0
100
AcDbLine
 62
2
  6
CONTINUOUS
 10
250.9306210165
 20
325.0872800843
 11
250.9306210165
 21
335.0872800843
  0
LINE
  5
2AE
100
AcDbEntity
  8
0
100
AcDbLine
 62
2
  6
CONTINUOUS
 10
250.9306210165
 20
335.0872800843
 11
250.9306210165
 21
315.5872800843
  0
INSERT
  5
2AF
100
AcDbEntity
  8
0
100
AcDbBlockReference
 62
2
  6
CONTINUOUS
  2
_FILLED
 10
250.9306210165
 20
306.0872800843
 41
5.8333333333
 42
5.8333333333
 43
5.8333333333
 50
90.0
  0
INSERT
  5
2B0
100
AcDbEntity
  8
0
100
AcDbBlockReference
 62
2
  6
CONTINUOUS
  2
_FILLED
 10
250.9306210165
 20
325.0872800843
 41
5.8333333333
 42
5.8333333333
 43
5.8333333333
 50
270.0
  0
ENDBLK
  5
2B1
100
AcDbEntity
  8
0
  6
BYBLOCK
 62
0
100
AcDbBlockEnd
  0
BLOCK
  5
2B2
100
AcDbEntity
  8
0
100
AcDbBlockBegin
 62
2
  6
CONTINUOUS
  2
*D12
 70
65
 10
0.0
 20
0.0
  3
*D12
  1

  0
MTEXT
  5
2B3
100
AcDbEntity
  8
0
100
AcDbMText
 62
5
  6
CONTINUOUS
  7
STANDARD
 71
2
 72
1
 10
293.0972876832
 20
389.128946751
 30
0.0
 11
1.0
 21
0.0
 31
0.0
 44
0.9
  1
31
 40
4.1666666667
 41
5.3571428571
  0
LINE
  5
2B4
100
AcDbEntity
  8
0
100
AcDbLine
 62
2
  6
CONTINUOUS
 10
308.5972876832
 20
356.4206134176
 11
308.5972876832
 21
386.4206134176
  0
LINE
  5
2B5
100
AcDbEntity
  8
0
100
AcDbLine
 62
2
  6
CONTINUOUS
 10
277.5972876832
 20
356.4206134176
 11
277.5972876832
 21
386.4206134176
  0
LINE
  5
2B6
100
AcDbEntity
  8
0
100
AcDbLine
 62
2
  6
CONTINUOUS
 10
308.5972876832
 20
383.9206134176
 11
293.0972876832
 21
383.9206134176
  0
LINE
  5
2B7
100
AcDbEntity
  8
0
100
AcDbLine
 62
2
  6
CONTINUOUS
 10
277.5972876832
 20
383.9206134176
 11
293.0972876832
 21
383.9206134176
  0
INSERT
  5
2B8
100
AcDbEntity
  8
0
100
AcDbBlockReference
 62
2
  6
CONTINUOUS
  2
_FILLED
 10
308.5972876832
 20
383.9206134176
 41
5.8333333333
 42
5.8333333333
 43
5.8333333333
  0
INSERT
  5
2B9
100
AcDbEntity
  8
0
100
AcDbBlockReference
 62
2
  6
CONTINUOUS
  2
_FILLED
 10
277.5972876832
 20
383.9206134176
 41
5.8333333333
 42
5.8333333333
 43
5.8333333333
 50
180.0
  0
ENDBLK
  5
2BA
100
AcDbEntity
  8
0
  6
BYBLOCK
 62
0
100
AcDbBlockEnd
  0
BLOCK
  5
2BB
100
AcDbEntity
  8
0
100
AcDbBlockBegin
 62
2
  6
CONTINUOUS
  2
*D13
 70
65
 10
0.0
 20
0.0
  3
*D13
  1

  0
MTEXT
  5
2BC
100
AcDbEntity
  8
0
100
AcDbMText
 62
5
  6
CONTINUOUS
  7
TEXTSTYLE_2
 71
1
 72
1
 10
643.7467805506
 20
372.2616530494
 30
0.0
 11
0.7052093123
 21
0.7089991719
 31
0.0
 44
0.9
  1
{\Fgdt;n}\Ftxt;107
 40
4.1666666667
 41
14.4841269841
  0
LINE
  5
2BD
100
AcDbEntity
  8
0
100
AcDbLine
 62
2
  6
CONTINUOUS
 10
632.4500868735
 20
353.5187357833
 11
594.7213886644
 21
315.5872800843
  0
LINE
  5
2BE
100
AcDbEntity
  8
0
100
AcDbLine
 62
2
  6
CONTINUOUS
 10
594.7213886644
 20
315.5872800843
 11
657.6538258012
 21
378.8579219191
  0
LINE
  5
2BF
100
AcDbEntity
  8
0
100
AcDbLine
 62
2
  6
CONTINUOUS
 10
556.9926904553
 20
277.6558243853
 11
594.7213886644
 21
315.5872800843
  0
INSERT
  5
2C0
100
AcDbEntity
  8
0
100
AcDbBlockReference
 62
2
  6
CONTINUOUS
  2
_FILLED
 10
632.4500868735
 20
353.5187357833
 41
5.8333333333
 42
5.8333333333
 43
5.8333333333
 50
45.1535434443
  0
INSERT
  5
2C1
100
AcDbEntity
  8
0
100
AcDbBlockReference
 62
2
  6
CONTINUOUS
  2
_FILLED
 10
556.9926904553
 20
277.6558243853
 41
5.8333333333
 42
5.8333333333
 43
5.8333333333
 50
225.1535434443
  0
ENDBLK
  5
2C2
100
AcDbEntity
  8
0
  6
BYBLOCK
 62
0
100
AcDbBlockEnd
  0
BLOCK
  5
2C3
100
AcDbEntity
  8
0
100
AcDbBlockBegin
 62
2
  6
CONTINUOUS
  2
*D14
 70
65
 10
0.0
 20
0.0
  3
*D14
  1

  0
MTEXT
  5
2C4
100
AcDbEntity
  8
0
100
AcDbMText
 62
5
  6
CONTINUOUS
  7
TEXTSTYLE_2
 71
2
 72
1
 10
594.7213886644
 20
402.4622800843
 30
0.0
 11
1.0
 21
0.0
 31
0.0
 44
0.9
  1
{\Fgdt;o}\Ftxt;80
 40
4.1666666667
 41
12.2767857143
  0
LINE
  5
2C5
100
AcDbEntity
  8
0
100
AcDbLine
 62
2
  6
CONTINUOUS
 10
554.7213886644
 20
351.3848426859
 11
554.7213886644
 21
399.753946751
  0
LINE
  5
2C6
100
AcDbEntity
  8
0
100
AcDbLine
 62
2
  6
CONTINUOUS
 10
634.7213886644
 20
351.3848426859
 11
634.7213886644
 21
399.753946751
  0
LINE
  5
2C7
100
AcDbEntity
  8
0
100
AcDbLine
 62
2
  6
CONTINUOUS
 10
554.7213886644
 20
397.253946751
 11
594.7213886644
 21
397.253946751
  0
LINE
  5
2C8
100
AcDbEntity
  8
0
100
AcDbLine
 62
2
  6
CONTINUOUS
 10
634.7213886644
 20
397.253946751
 11
594.7213886644
 21
397.253946751
  0
INSERT
  5
2C9
100
AcDbEntity
  8
0
100
AcDbBlockReference
 62
2
  6
CONTINUOUS
  2
_FILLED
 10
554.7213886644
 20
397.253946751
 41
5.8333333333
 42
5.8333333333
 43
5.8333333333
 50
180.0
  0
INSERT
  5
2CA
100
AcDbEntity
  8
0
100
AcDbBlockReference
 62
2
  6
CONTINUOUS
  2
_FILLED
 10
634.7213886644
 20
397.253946751
 41
5.8333333333
 42
5.8333333333
 43
5.8333333333
  0
ENDBLK
  5
2CB
100
AcDbEntity
  8
0
  6
BYBLOCK
 62
0
100
AcDbBlockEnd
  0
BLOCK
  5
2CC
100
AcDbEntity
  8
0
100
AcDbBlockBegin
 62
2
  6
CONTINUOUS
  2
*D15
 70
65
 10
0.0
 20
0.0
  3
*D15
  1

  0
TEXT
  5
2CD
100
AcDbEntity
  8
0
100
AcDbText
 62
5
  6
CONTINUOUS
 10
237.1806210165
 20
304.9821213541
  7
TEXTSTYLE_2
 40
4.1666666667
  1
n
 50
90.0
 41
1.0
 72
1
 11
237.1806210165
 21
307.7598991319
100
AcDbText
  0
TEXT
  5
2CE
100
AcDbEntity
  8
0
100
AcDbText
 62
5
  6
CONTINUOUS
 10
237.1806210165
 20
310.5376769097
  7
STANDARD
 40
4.1666666667
  1
70
 50
90.0
 41
0.7857142857
 72
1
 11
237.1806210165
 21
313.8114864335
100
AcDbText
  0
TEXT
  5
2CF
100
AcDbEntity
  8
0
100
AcDbText
 62
5
  6
CONTINUOUS
 10
234.6806210165
 20
317.0852959573
  7
TEXTSTYLE_3
 40
2.5
  1
+0.05
 50
90.0
 41
0.7142857143
 72
1
 11
234.6806210165
 21
321.5495816716
100
AcDbText
  0
TEXT
  5
2D0
100
AcDbEntity
  8
0
100
AcDbText
 62
5
  6
CONTINUOUS
 10
238.0139543498
 20
317.0852959573
  7
TEXTSTYLE_3
 40
2.5
  1
+0.02
 50
90.0
 41
0.7285714286
 72
1
 11
238.0139543498
 21
321.6388673859
100
AcDbText
  0
LINE
  5
2D1
100
AcDbEntity
  8
0
100
AcDbLine
 62
2
  6
CONTINUOUS
 10
276.7639543498
 20
280.5872800843
 11
236.7639543498
 21
280.5872800843
  0
LINE
  5
2D2
100
AcDbEntity
  8
0
100
AcDbLine
 62
2
  6
CONTINUOUS
 10
276.7639543498
 20
350.5872800843
 11
236.7639543498
 21
350.5872800843
  0
LINE
  5
2D3
100
AcDbEntity
  8
0
100
AcDbLine
 62
2
  6
CONTINUOUS
 10
239.2639543498
 20
280.5872800843
 11
239.2639543498
 21
315.5872800843
  0
LINE
  5
2D4
100
AcDbEntity
  8
0
100
AcDbLine
 62
2
  6
CONTINUOUS
 10
239.2639543498
 20
350.5872800843
 11
239.2639543498
 21
315.5872800843
  0
INSERT
  5
2D5
100
AcDbEntity
  8
0
100
AcDbBlockReference
 62
2
  6
CONTINUOUS
  2
_FILLED
 10
239.2639543498
 20
280.5872800843
 41
5.8333333333
 42
5.8333333333
 43
5.8333333333
 50
270.0
  0
INSERT
  5
2D6
100
AcDbEntity
  8
0
100
AcDbBlockReference
 62
2
  6
CONTINUOUS
  2
_FILLED
 10
239.2639543498
 20
350.5872800843
 41
5.8333333333
 42
5.8333333333
 43
5.8333333333
 50
90.0
  0
ENDBLK
  5
2D7
100
AcDbEntity
  8
0
  6
BYBLOCK
 62
0
100
AcDbBlockEnd
  0
BLOCK
  5
2D8
100
AcDbEntity
  8
0
100
AcDbBlockBegin
 62
2
  6
CONTINUOUS
  2
*D16
 70
65
 10
0.0
 20
0.0
  3
*D16
  1

  0
MTEXT
  5
2D9
100
AcDbEntity
  8
0
100
AcDbMText
 62
5
  6
CONTINUOUS
  7
STANDARD
 71
3
 72
1
 10
267.2101355918
 20
262.4622800843
 30
0.0
 11
1.0
 21
0.0
 31
0.0
 44
0.9
  1
5.3
 40
4.1666666667
 41
8.3333333333
  0
LINE
  5
2DA
100
AcDbEntity
  8
0
100
AcDbLine
 62
2
  6
CONTINUOUS
 10
277.5972876832
 20
274.753946751
 11
277.5972876832
 21
254.753946751
  0
LINE
  5
2DB
100
AcDbEntity
  8
0
100
AcDbLine
 62
2
  6
CONTINUOUS
 10
282.8972876832
 20
274.753946751
 11
282.8972876832
 21
254.753946751
  0
LINE
  5
2DC
100
AcDbEntity
  8
0
100
AcDbLine
 62
2
  6
CONTINUOUS
 10
277.5972876832
 20
257.253946751
 11
258.8768022585
 21
257.253946751
  0
LINE
  5
2DD
100
AcDbEntity
  8
0
100
AcDbLine
 62
2
  6
CONTINUOUS
 10
258.8768022585
 20
257.253946751
 11
280.2472876832
 21
257.253946751
  0
LINE
  5
2DE
100
AcDbEntity
  8
0
100
AcDbLine
 62
2
  6
CONTINUOUS
 10
282.8972876832
 20
257.253946751
 11
292.8972876832
 21
257.253946751
  0
LINE
  5
2DF
100
AcDbEntity
  8
0
100
AcDbLine
 62
2
  6
CONTINUOUS
 10
292.8972876832
 20
257.253946751
 11
280.2472876832
 21
257.253946751
  0
INSERT
  5
2E0
100
AcDbEntity
  8
0
100
AcDbBlockReference
 62
2
  6
CONTINUOUS
  2
_FILLED
 10
277.5972876832
 20
257.253946751
 41
5.8333333333
 42
5.8333333333
 43
5.8333333333
  0
INSERT
  5
2E1
100
AcDbEntity
  8
0
100
AcDbBlockReference
 62
2
  6
CONTINUOUS
  2
_FILLED
 10
282.8972876832
 20
257.253946751
 41
5.8333333333
 42
5.8333333333
 43
5.8333333333
 50
180.0
  0
ENDBLK
  5
2E2
100
AcDbEntity
  8
0
  6
BYBLOCK
 62
0
100
AcDbBlockEnd
  0
BLOCK
  5
2E3
100
AcDbEntity
  8
0
100
AcDbBlockBegin
 62
2
  6
CONTINUOUS
  2
*D17
 70
65
 10
0.0
 20
0.0
  3
*D17
  1

  0
MTEXT
  5
2E4
100
AcDbEntity
  8
0
100
AcDbMText
 62
5
  6
CONTINUOUS
  7
STANDARD
 71
3
 72
1
 10
548.9040831587
 20
346.8142471886
 30
0.0
 11
0.875577684
 21
-0.4830773429
 31
0.0
 44
0.9
  1
     \Fgdt;{\Fgdt;n}\Ftxt;90
 40
4.1666666667
 41
28.4722222222
  0
LINE
  5
2E5
100
AcDbEntity
  8
0
100
AcDbLine
 62
2
  6
CONTINUOUS
 10
555.3203928832
 20
337.3257605153
 11
594.7213886644
 21
315.5872800843
  0
LINE
  5
2E6
100
AcDbEntity
  8
0
100
AcDbLine
 62
2
  6
CONTINUOUS
 10
594.7213886644
 20
315.5872800843
 11
521.4584129387
 21
356.0082322089
  0
LINE
  5
2E7
100
AcDbEntity
  8
0
100
AcDbLine
 62
2
  6
CONTINUOUS
 10
634.1223844456
 20
293.8487996533
 11
594.7213886644
 21
315.5872800843
  0
INSERT
  5
2E8
100
AcDbEntity
  8
0
100
AcDbBlockReference
 62
2
  6
CONTINUOUS
  2
_FILLED
 10
555.3203928832
 20
337.3257605153
 41
5.8333333333
 42
5.8333333333
 43
5.8333333333
 50
151.1134182331
  0
INSERT
  5
2E9
100
AcDbEntity
  8
0
100
AcDbBlockReference
 62
2
  6
CONTINUOUS
  2
_FILLED
 10
634.1223844456
 20
293.8487996533
 41
5.8333333333
 42
5.8333333333
 43
5.8333333333
 50
331.1134182331
  0
ENDBLK
  5
2EA
100
AcDbEntity
  8
0
  6
BYBLOCK
 62
0
100
AcDbBlockEnd
  0
BLOCK
  5
2EB
100
AcDbEntity
  8
0
100
AcDbBlockBegin
 62
2
  6
CONTINUOUS
  2
*D18
 70
65
 10
0.0
 20
0.0
  3
*D18
  1

  0
MTEXT
  5
2EC
100
AcDbEntity
  8
0
100
AcDbMText
 62
5
  6
CONTINUOUS
  7
STANDARD
 71
1
 72
1
 10
573.8340814671
 20
382.4622800843
 30
0.0
 11
1.0
 21
0.0
 31
0.0
 44
0.9
  1
M6        
 40
4.1666666667
 41
33.0357142857
  0
LINE
  5
2ED
100
AcDbEntity
  8
0
100
AcDbLine
 62
2
  6
CONTINUOUS
 10
565.9100045802
 20
346.5733647111
 11
565.9144535901
 21
379.7550086407
  0
LINE
  5
2EE
100
AcDbEntity
  8
0
100
AcDbLine
 62
2
  6
CONTINUOUS
 10
559.9100045263
 20
346.5733647111
 11
559.914453644
 21
379.7558131234
  0
LINE
  5
2EF
100
AcDbEntity
  8
0
100
AcDbLine
 62
2
  6
CONTINUOUS
 10
565.9141183889
 20
377.2550086632
 11
606.8697957528
 21
377.253946751
  0
LINE
  5
2F0
100
AcDbEntity
  8
0
100
AcDbLine
 62
2
  6
CONTINUOUS
 10
606.8697957528
 20
377.253946751
 11
562.9141184159
 21
377.2554109046
  0
LINE
  5
2F1
100
AcDbEntity
  8
0
100
AcDbLine
 62
2
  6
CONTINUOUS
 10
559.9141184429
 20
377.2558131459
 11
549.9141185328
 21
377.2571539504
  0
LINE
  5
2F2
100
AcDbEntity
  8
0
100
AcDbLine
 62
2
  6
CONTINUOUS
 10
549.9141185328
 20
377.2571539504
 11
562.9141184159
 21
377.2554109046
  0
INSERT
  5
2F3
100
AcDbEntity
  8
0
100
AcDbBlockReference
 62
2
  6
CONTINUOUS
  2
_FILLED
 10
565.9141183889
 20
377.2550086632
 41
5.8333333333
 42
5.8333333333
 43
5.8333333333
 50
179.9985144162
  0
INSERT
  5
2F4
100
AcDbEntity
  8
0
100
AcDbBlockReference
 62
2
  6
CONTINUOUS
  2
_FILLED
 10
559.9141184429
 20
377.2558131459
 41
5.8333333333
 42
5.8333333333
 43
5.8333333333
 50
359.9923177559
  0
ENDBLK
  5
2F5
100
AcDbEntity
  8
0
  6
BYBLOCK
 62
0
100
AcDbBlockEnd
  0
BLOCK
  5
2F6
100
AcDbEntity
  8
0
100
AcDbBlockBegin
 62
2
  6
CONTINUOUS
  2
*D19
 70
65
 10
0.0
 20
0.0
  3
*D19
  1

  0
MTEXT
  5
2F7
100
AcDbEntity
  8
0
100
AcDbMText
 62
5
  6
CONTINUOUS
  7
STANDARD
 71
1
 72
1
 10
406.3626750813
 20
284.9630570359
 30
0.0
 11
0.3921491747
 21
-0.9199016386
 31
0.0
 44
0.9
  1
R0.8
 40
4.1666666667
 41
12.2023809524
  0
LINE
  5
2F8
100
AcDbEntity
  8
0
100
AcDbLine
 62
2
  6
CONTINUOUS
 10
391.0835683434
 20
307.5232013952
 11
406.3566743334
 21
271.6956231842
  0
INSERT
  5
2F9
100
AcDbEntity
  8
0
100
AcDbBlockReference
 62
2
  6
CONTINUOUS
  2
_FILLED
 10
391.0835683434
 20
307.5232013952
 41
5.8333333333
 42
5.8333333333
 43
5.8333333333
 50
113.0882935894
  0
ENDBLK
  5
2FA
100
AcDbEntity
  8
0
  6
BYBLOCK
 62
0
100
AcDbBlockEnd
  0
BLOCK
  5
2FB
100
AcDbEntity
  8
0
100
AcDbBlockBegin
 62
2
  6
CONTINUOUS
  2
*D20
 70
65
 10
0.0
 20
0.0
  3
*D20
  1

  0
MTEXT
  5
2FC
100
AcDbEntity
  8
0
100
AcDbMText
 62
5
  6
CONTINUOUS
  7
TEXTSTYLE_2
 71
2
 72
1
 10
356.0296943835
 20
290.6013475316
 30
0.0
 11
0.0
 21
1.0
 31
0.0
 44
0.9
  1
{\Fgdt;n}\Ftxt;70
 40
4.1666666667
 41
12.1031746032
  0
LINE
  5
2FD
100
AcDbEntity
  8
0
100
AcDbLine
 62
2
  6
CONTINUOUS
 10
356.2380277169
 20
280.5872800843
 11
363.7380277169
 21
280.5872800843
  0
LINE
  5
2FE
100
AcDbEntity
  8
0
100
AcDbLine
 62
2
  6
CONTINUOUS
 10
356.2380277169
 20
350.5872800843
 11
363.7380277169
 21
350.5872800843
  0
LINE
  5
2FF
100
AcDbEntity
  8
0
100
AcDbLine
 62
2
  6
CONTINUOUS
 10
361.2380277169
 20
280.5872800843
 11
361.2380277169
 21
315.5872800843
  0
LINE
  5
300
100
AcDbEntity
  8
0
100
AcDbLine
 62
2
  6
CONTINUOUS
 10
361.2380277169
 20
350.5872800843
 11
361.2380277169
 21
315.5872800843
  0
INSERT
  5
301
100
AcDbEntity
  8
0
100
AcDbBlockReference
 62
2
  6
CONTINUOUS
  2
_FILLED
 10
361.2380277169
 20
280.5872800843
 41
5.8333333333
 42
5.8333333333
 43
5.8333333333
 50
270.0
  0
INSERT
  5
302
100
AcDbEntity
  8
0
100
AcDbBlockReference
 62
2
  6
CONTINUOUS
  2
_FILLED
 10
361.2380277169
 20
350.5872800843
 41
5.8333333333
 42
5.8333333333
 43
5.8333333333
 50
90.0
  0
ENDBLK
  5
303
100
AcDbEntity
  8
0
  6
BYBLOCK
 62
0
100
AcDbBlockEnd
  0
BLOCK
  5
304
100
AcDbEntity
  8
0
100
AcDbBlockBegin
 62
2
  6
CONTINUOUS
  2
*D21
 70
65
 10
0.0
 20
0.0
  3
*D21
  1

  0
MTEXT
  5
305
100
AcDbEntity
  8
0
100
AcDbMText
 62
5
  6
CONTINUOUS
  7
STANDARD
 71
2
 72
1
 10
350.5972876832
 20
412.4622800843
 30
0.0
 11
1.0
 21
0.0
 31
0.0
 44
0.9
  1
64
 40
4.1666666667
 41
6.5476190476
  0
LINE
  5
306
100
AcDbEntity
  8
0
100
AcDbLine
 62
2
  6
CONTINUOUS
 10
318.5972876832
 20
346.4749876036
 11
318.5972876832
 21
409.753946751
  0
LINE
  5
307
100
AcDbEntity
  8
0
100
AcDbLine
 62
2
  6
CONTINUOUS
 10
382.5972876832
 20
351.4206134176
 11
382.5972876832
 21
409.753946751
  0
LINE
  5
308
100
AcDbEntity
  8
0
100
AcDbLine
 62
2
  6
CONTINUOUS
 10
318.5972876832
 20
407.253946751
 11
350.5972876832
 21
407.253946751
  0
LINE
  5
309
100
AcDbEntity
  8
0
100
AcDbLine
 62
2
  6
CONTINUOUS
 10
382.5972876832
 20
407.253946751
 11
350.5972876832
 21
407.253946751
  0
INSERT
  5
30A
100
AcDbEntity
  8
0
100
AcDbBlockReference
 62
2
  6
CONTINUOUS
  2
_FILLED
 10
318.5972876832
 20
407.253946751
 41
5.8333333333
 42
5.8333333333
 43
5.8333333333
 50
180.0
  0
INSERT
  5
30B
100
AcDbEntity
  8
0
100
AcDbBlockReference
 62
2
  6
CONTINUOUS
  2
_FILLED
 10
382.5972876832
 20
407.253946751
 41
5.8333333333
 42
5.8333333333
 43
5.8333333333
  0
ENDBLK
  5
30C
100
AcDbEntity
  8
0
  6
BYBLOCK
 62
0
100
AcDbBlockEnd
  0
BLOCK
  5
30D
100
AcDbEntity
  8
0
100
AcDbBlockBegin
 62
2
  6
CONTINUOUS
  2
*D22
 70
65
 10
0.0
 20
0.0
  3
*D22
  1

  0
MTEXT
  5
30E
100
AcDbEntity
  8
0
100
AcDbMText
 62
5
  6
CONTINUOUS
  7
STANDARD
 71
1
 72
1
 10
395.5245995111
 20
264.128946751
 30
0.0
 11
1.0
 21
0.0
 31
0.0
 44
0.9
  1
3
 40
4.1666666667
 41
2.9761904762
  0
LINE
  5
30F
100
AcDbEntity
  8
0
100
AcDbLine
 62
2
  6
CONTINUOUS
 10
385.5972876832
 20
288.753946751
 11
385.5972876832
 21
256.4206134176
  0
LINE
  5
310
100
AcDbEntity
  8
0
100
AcDbLine
 62
2
  6
CONTINUOUS
 10
382.5972876832
 20
288.753946751
 11
382.5972876832
 21
256.4206134176
  0
LINE
  5
311
100
AcDbEntity
  8
0
100
AcDbLine
 62
2
  6
CONTINUOUS
 10
385.5972876832
 20
258.9206134176
 11
398.5007899873
 21
258.9206134176
  0
LINE
  5
312
100
AcDbEntity
  8
0
100
AcDbLine
 62
2
  6
CONTINUOUS
 10
398.5007899873
 20
258.9206134176
 11
384.0972876832
 21
258.9206134176
  0
LINE
  5
313
100
AcDbEntity
  8
0
100
AcDbLine
 62
2
  6
CONTINUOUS
 10
382.5972876832
 20
258.9206134176
 11
372.5972876832
 21
258.9206134176
  0
LINE
  5
314
100
AcDbEntity
  8
0
100
AcDbLine
 62
2
  6
CONTINUOUS
 10
372.5972876832
 20
258.9206134176
 11
384.0972876832
 21
258.9206134176
  0
INSERT
  5
315
100
AcDbEntity
  8
0
100
AcDbBlockReference
 62
2
  6
CONTINUOUS
  2
_FILLED
 10
385.5972876832
 20
258.9206134176
 41
5.8333333333
 42
5.8333333333
 43
5.8333333333
 50
180.0
  0
INSERT
  5
316
100
AcDbEntity
  8
0
100
AcDbBlockReference
 62
2
  6
CONTINUOUS
  2
_FILLED
 10
382.5972876832
 20
258.9206134176
 41
5.8333333333
 42
5.8333333333
 43
5.8333333333
  0
ENDBLK
  5
317
100
AcDbEntity
  8
0
  6
BYBLOCK
 62
0
100
AcDbBlockEnd
  0
BLOCK
  5
318
100
AcDbEntity
  8
0
100
AcDbBlockBegin
 62
2
  6
CONTINUOUS
  2
*D23
 70
65
 10
0.0
 20
0.0
  3
*D23
  1

  0
MTEXT
  5
319
100
AcDbEntity
  8
0
100
AcDbMText
 62
5
  6
CONTINUOUS
  7
TEXTSTYLE_2
 71
2
 72
1
 10
463.3889543498
 20
315.5872800843
 30
0.0
 11
0.0
 21
1.0
 31
0.0
 44
0.9
  1
{\Fgdt;n}\Ftxt;52
 40
4.1666666667
 41
11.8055555556
  0
LINE
  5
31A
100
AcDbEntity
  8
0
100
AcDbLine
 62
2
  6
CONTINUOUS
 10
388.2639543498
 20
289.5872800843
 11
471.0972876832
 21
289.5872800843
  0
LINE
  5
31B
100
AcDbEntity
  8
0
100
AcDbLine
 62
2
  6
CONTINUOUS
 10
388.2608684478
 20
341.5872800843
 11
471.0972876832
 21
341.5872800843
  0
LINE
  5
31C
100
AcDbEntity
  8
0
100
AcDbLine
 62
2
  6
CONTINUOUS
 10
468.5972876832
 20
289.5872800843
 11
468.5972876832
 21
315.5872800843
  0
LINE
  5
31D
100
AcDbEntity
  8
0
100
AcDbLine
 62
2
  6
CONTINUOUS
 10
468.5972876832
 20
341.5872800843
 11
468.5972876832
 21
315.5872800843
  0
INSERT
  5
31E
100
AcDbEntity
  8
0
100
AcDbBlockReference
 62
2
  6
CONTINUOUS
  2
_FILLED
 10
468.5972876832
 20
289.5872800843
 41
5.8333333333
 42
5.8333333333
 43
5.8333333333
 50
270.0
  0
INSERT
  5
31F
100
AcDbEntity
  8
0
100
AcDbBlockReference
 62
2
  6
CONTINUOUS
  2
_FILLED
 10
468.5972876832
 20
341.5872800843
 41
5.8333333333
 42
5.8333333333
 43
5.8333333333
 50
90.0
  0
ENDBLK
  5
320
100
AcDbEntity
  8
0
  6
BYBLOCK
 62
0
100
AcDbBlockEnd
  0
BLOCK
  5
321
100
AcDbEntity
  8
0
100
AcDbBlockBegin
 62
2
  6
CONTINUOUS
  2
*D24
 70
65
 10
0.0
 20
0.0
  3
*D24
  1

  0
MTEXT
  5
322
100
AcDbEntity
  8
0
100
AcDbMText
 62
5
  6
CONTINUOUS
  7
STANDARD
 71
3
 72
1
 10
66.5007156391
 20
349.3399409093
 30
0.0
 11
0.8551522357
 21
-0.5183769418
 31
0.0
 44
0.9
  1
    \Fgdt;{\Fgdt;n}\Ftxt;62
 40
4.1666666667
 41
25.1984126984
  0
LINE
  5
323
100
AcDbEntity
  8
0
100
AcDbLine
 62
2
  6
CONTINUOUS
 10
85.6244497608
 20
331.6569652801
 11
112.1341690673
 21
315.5872800843
  0
LINE
  5
324
100
AcDbEntity
  8
0
100
AcDbLine
 62
2
  6
CONTINUOUS
 10
112.1341690673
 20
315.5872800843
 11
42.252356779
 21
357.9482991279
  0
LINE
  5
325
100
AcDbEntity
  8
0
100
AcDbLine
 62
2
  6
CONTINUOUS
 10
138.6438883738
 20
299.5175948885
 11
112.1341690673
 21
315.5872800843
  0
INSERT
  5
326
100
AcDbEntity
  8
0
100
AcDbBlockReference
 62
2
  6
CONTINUOUS
  2
_FILLED
 10
85.6244497608
 20
331.6569652801
 41
5.8333333333
 42
5.8333333333
 43
5.8333333333
 50
148.7765571967
  0
INSERT
  5
327
100
AcDbEntity
  8
0
100
AcDbBlockReference
 62
2
  6
CONTINUOUS
  2
_FILLED
 10
138.6438883738
 20
299.5175948885
 41
5.8333333333
 42
5.8333333333
 43
5.8333333333
 50
328.7765571967
  0
ENDBLK
  5
328
100
AcDbEntity
  8
0
  6
BYBLOCK
 62
0
100
AcDbBlockEnd
  0
BLOCK
  5
329
100
AcDbEntity
  8
0
100
AcDbBlockBegin
 62
2
  6
CONTINUOUS
  2
*D25
 70
65
 10
0.0
 20
0.0
  3
*D25
  1

  0
MTEXT
  5
32A
100
AcDbEntity
  8
0
100
AcDbMText
 62
5
  6
CONTINUOUS
  7
STANDARD
 71
3
 72
1
 10
111.8096247553
 20
260.7956085238
 30
0.0
 11
0.9999990604
 21
0.0013708553
 31
0.0
 44
0.9
  1
M5
 40
4.1666666667
 41
6.5476190476
  0
LINE
  5
32B
100
AcDbEntity
  8
0
100
AcDbLine
 62
2
  6
CONTINUOUS
 10
140.6375985546
 20
313.0838552951
 11
140.7197909431
 21
253.1268996397
  0
LINE
  5
32C
100
AcDbEntity
  8
0
100
AcDbLine
 62
2
  6
CONTINUOUS
 10
145.6375938565
 20
313.0907095716
 11
145.719786245
 21
253.1337539163
  0
LINE
  5
32D
100
AcDbEntity
  8
0
100
AcDbLine
 62
2
  6
CONTINUOUS
 10
140.7163638048
 20
255.6268972906
 11
105.2691517314
 21
255.5783042459
  0
LINE
  5
32E
100
AcDbEntity
  8
0
100
AcDbLine
 62
2
  6
CONTINUOUS
 10
105.2691517314
 20
255.5783042459
 11
143.2163614558
 21
255.6303244289
  0
LINE
  5
32F
100
AcDbEntity
  8
0
100
AcDbLine
 62
2
  6
CONTINUOUS
 10
145.7163591067
 20
255.6337515672
 11
155.7163497105
 21
255.6474601203
  0
LINE
  5
330
100
AcDbEntity
  8
0
100
AcDbLine
 62
2
  6
CONTINUOUS
 10
155.7163497105
 20
255.6474601203
 11
143.2163614558
 21
255.6303244289
  0
INSERT
  5
331
100
AcDbEntity
  8
0
100
AcDbBlockReference
 62
2
  6
CONTINUOUS
  2
_FILLED
 10
140.7163638048
 20
255.6268972906
 41
5.8333333333
 42
5.8333333333
 43
5.8333333333
 50
0.0785442484
  0
INSERT
  5
332
100
AcDbEntity
  8
0
100
AcDbBlockReference
 62
2
  6
CONTINUOUS
  2
_FILLED
 10
145.7163591067
 20
255.6337515672
 41
5.8333333333
 42
5.8333333333
 43
5.8333333333
 50
180.0785442484
  0
ENDBLK
  5
333
100
AcDbEntity
  8
0
  6
BYBLOCK
 62
0
100
AcDbBlockEnd
  0
BLOCK
  5
334
100
AcDbEntity
  8
0
100
AcDbBlockBegin
 62
2
  6
CONTINUOUS
  2
*D26
 70
65
 10
0.0
 20
0.0
  3
*D26
  1

  0
MTEXT
  5
335
100
AcDbEntity
  8
0
100
AcDbMText
 62
5
  6
CONTINUOUS
  7
STANDARD
 71
1
 72
1
 10
395.4160145855
 20
277.9358363447
 30
0.0
 11
0.3794906666
 21
-0.9251955652
 31
0.0
 44
0.9
  1
R1
 40
4.1666666667
 41
5.6547619048
  0
LINE
  5
336
100
AcDbEntity
  8
0
100
AcDbLine
 62
2
  6
CONTINUOUS
 10
384.9767783498
 20
289.662084519
 11
392.7432170479
 21
270.7275618193
  0
INSERT
  5
337
100
AcDbEntity
  8
0
100
AcDbBlockReference
 62
2
  6
CONTINUOUS
  2
_FILLED
 10
384.9767783498
 20
289.662084519
 41
5.8333333333
 42
5.8333333333
 43
5.8333333333
 50
112.3021369483
  0
ENDBLK
  5
338
100
AcDbEntity
  8
0
  6
BYBLOCK
 62
0
100
AcDbBlockEnd
  0
ENDSEC
  0
SECTION
  2
ENTITIES
  0
DIMENSION
  5
339
100
AcDbEntity
  8
ZEICHNUNGSBEMASSUNGEN
100
AcDbDimension
 62
2
  6
CONTINUOUS
  2
*D0
 10
418.5972876832
 20
423.9206134176
 11
344.0794305403
 21
427.0456134176
 70
160
 71
2
 42
141.0
  3
DIMSTYLE_1
100
AcDbAlignedDimension
 13
277.5972876832
 23
356.4206134176
 14
418.5972876832
 24
324.4206134176
100
AcDbRotatedDimension
  0
DIMENSION
  5
33A
100
AcDbEntity
  8
ZEICHNUNGSBEMASSUNGEN
100
AcDbDimension
 62
2
  6
CONTINUOUS
  2
*D1
 10
317.5972876832
 20
243.9206134176
 11
294.3234781594
 21
247.0456134176
 70
160
 71
2
 42
40.0
  3
DIMSTYLE_2
100
AcDbAlignedDimension
 13
277.5972876832
 23
274.753946751
 14
317.5972876832
 24
305.253946751
100
AcDbRotatedDimension
  0
DIMENSION
  5
33B
100
AcDbEntity
  8
ZEICHNUNGSBEMASSUNGEN
100
AcDbDimension
 62
2
  6
CONTINUOUS
  2
*D2
 10
318.5972876832
 20
407.253946751
 11
295.2699067308
 21
410.378946751
 70
160
 71
2
 42
41.0
  3
DIMSTYLE_2
100
AcDbAlignedDimension
 13
277.5972876832
 23
365.5872800843
 14
318.5972876832
 24
346.1688025626
100
AcDbRotatedDimension
  0
DIMENSION
  5
33C
100
AcDbEntity
  8
ZEICHNUNGSBEMASSUNGEN
100
AcDbDimension
 62
2
  6
CONTINUOUS
  2
*D3
 10
418.5972876832
 20
407.253946751
 11
397.4722876832
 21
410.378946751
 70
160
 71
2
 42
36.0
  3
DIMSTYLE_2
100
AcDbAlignedDimension
 13
382.5972876832
 23
351.4206134176
 14
418.5972876832
 24
325.5872800843
100
AcDbRotatedDimension
  0
DIMENSION
  5
33D
100
AcDbEntity
  8
0
100
AcDbDimension
 62
2
  6
CONTINUOUS
  2
*D4
 10
438.5972876832
 20
307.5872800843
 11
437.9838114244
 21
261.6377948171
 70
160
 71
3
 42
16.0
  1
%%c<>
  3
DIMSTYLE_3
100
AcDbAlignedDimension
 13
419.4306210165
 23
323.5872800843
 14
419.4306210165
 24
307.5872800843
 50
270.0
100
AcDbRotatedDimension
  0
DIMENSION
  5
33E
100
AcDbEntity
  8
0
100
AcDbDimension
 62
2
  6
CONTINUOUS
  2
*D5
 10
390.5972876832
 20
383.9206134176
 11
401.3234781594
 21
387.0456134176
 70
160
 71
2
 42
28.0
  3
DIMSTYLE_4
100
AcDbAlignedDimension
 13
418.5972876832
 23
324.4206134176
 14
390.5972876832
 24
331.4206134176
 50
180.0
100
AcDbRotatedDimension
  0
DIMENSION
  5
33F
100
AcDbEntity
  8
0
100
AcDbDimension
 62
2
  6
CONTINUOUS
  2
*D6
 10
453.5972876832
 20
300.5872800843
 11
451.7947271752
 21
312.9487482646
 70
160
 71
2
 42
30.0
  1
%%c<>
  3
DIMSTYLE_4
100
AcDbAlignedDimension
 13
391.4306210165
 23
330.5872800843
 14
391.4306210165
 24
300.5872800843
 50
270.0
100
AcDbRotatedDimension
  0
DIMENSION
  5
340
100
AcDbEntity
  8
0
100
AcDbDimension
 62
2
  6
CONTINUOUS
  2
*D7
 10
50.4675024006
 20
307.5872800843
 11
48.6093772081
 21
314.0596109461
 70
160
 71
2
 42
18.0
  3
DIMSTYLE_4
100
AcDbAlignedDimension
 13
108.8008357339
 23
325.5872800843
 14
111.8167646267
 24
307.5872800843
 50
270.0
100
AcDbRotatedDimension
  0
DIMENSION
  5
341
100
AcDbEntity
  8
0
100
AcDbDimension
 62
2
  6
CONTINUOUS
  2
*D8
 10
416.5972876832
 20
363.9206134176
 11
400.9722876832
 21
367.0456134176
 70
160
 71
2
 42
25.0
  3
DIMSTYLE_4
100
AcDbAlignedDimension
 13
391.5972876832
 23
326.4206134176
 14
416.5972876832
 24
326.4206134176
100
AcDbRotatedDimension
  0
DIMENSION
  5
342
100
AcDbEntity
  8
0
100
AcDbDimension
 62
2
  6
CONTINUOUS
  2
*D9
 10
416.5972876832
 20
373.9206134176
 11
440.2341924451
 21
377.0456134176
 70
160
 71
1
 42
2.0
  3
DIMSTYLE_5
100
AcDbAlignedDimension
 13
418.5972876832
 23
324.4206134176
 14
416.5972876832
 24
326.4206134176
 50
180.0
100
AcDbRotatedDimension
  0
DIMENSION
  5
343
100
AcDbEntity
  8
0
100
AcDbDimension
 62
2
  6
CONTINUOUS
  2
*D10
 10
109.6341690673
 20
373.9206134176
 11
110.6460738292
 21
377.0456134176
 70
160
 71
2
 42
5.0
  3
DIMSTYLE_5
100
AcDbAlignedDimension
 13
114.6341690673
 23
326.4206134176
 14
109.6341690673
 24
326.4206134176
 50
180.0
100
AcDbRotatedDimension
  0
DIMENSION
  5
344
100
AcDbEntity
  8
0
100
AcDbDimension
 62
2
  6
CONTINUOUS
  2
*D11
 10
250.9306210165
 20
325.0872800843
 11
250.3171447577
 21
287.5249845421
 70
160
 71
3
 42
19.0
  1
%%c<>
  3
DIMSTYLE_4
100
AcDbAlignedDimension
 13
285.0972876832
 23
306.0872800843
 14
285.0972876832
 24
325.0872800843
 50
90.0
100
AcDbRotatedDimension
  0
DIMENSION
  5
345
100
AcDbEntity
  8
0
100
AcDbDimension
 62
2
  6
CONTINUOUS
  2
*D12
 10
277.5972876832
 20
383.9206134176
 11
290.4187162546
 21
387.0456134176
 70
160
 71
2
 42
31.0
  3
DIMSTYLE_2
100
AcDbAlignedDimension
 13
308.5972876832
 23
356.4206134176
 14
277.5972876832
 24
356.4206134176
 50
180.0
100
AcDbRotatedDimension
  0
DIMENSION
  5
346
100
AcDbEntity
  8
0
100
AcDbDimension
 62
2
  6
CONTINUOUS
  2
*D13
 10
632.4500868735
 20
353.5187357833
 11
650.3310327739
 21
375.9270840011
 70
163
 71
1
 42
107.0
  1
<>
  3
DIMSTYLE_6
100
AcDbDiametricDimension
 15
556.9926904553
 25
277.6558243853
  0
DIMENSION
  5
347
100
AcDbEntity
  8
0
100
AcDbDimension
 62
2
  6
CONTINUOUS
  2
*D14
 10
634.7213886644
 20
397.253946751
 11
591.6521922358
 21
400.378946751
 70
160
 71
2
 42
80.0
  1
{\Fgdt;o}<>
  3
DIMSTYLE_2
100
AcDbAlignedDimension
 13
554.7213886644
 23
351.3848426859
 14
634.7213886644
 24
351.3848426859
100
AcDbRotatedDimension
  0
DIMENSION
  5
348
100
AcDbEntity
  8
0
100
AcDbDimension
 62
2
  6
CONTINUOUS
  2
*D15
 10
239.2639543498
 20
350.5872800843
 11
237.117619613
 21
312.3101792192
 70
160
 71
2
 42
70.0
  1
%%c<>
  3
DIMSTYLE_7
100
AcDbAlignedDimension
 13
276.7639543498
 23
280.5872800843
 14
276.7639543498
 24
350.5872800843
 50
90.0
100
AcDbRotatedDimension
  0
DIMENSION
  5
349
100
AcDbEntity
  8
0
100
AcDbDimension
 62
2
  6
CONTINUOUS
  2
*D16
 10
282.8972876832
 20
257.253946751
 11
254.7101355918
 21
260.378946751
 70
160
 71
3
 42
5.3
  3
DIMSTYLE_5
100
AcDbAlignedDimension
 13
277.5972876832
 23
274.753946751
 14
282.8972876832
 24
274.753946751
100
AcDbRotatedDimension
  0
DIMENSION
  5
34A
100
AcDbEntity
  8
0
100
AcDbDimension
 62
2
  6
CONTINUOUS
  2
*D17
 10
555.3203928832
 20
337.3257605153
 11
547.5514033741
 21
344.4356131555
 70
163
 71
3
 42
90.0
  1
     <>
  3
DIMSTYLE_6
100
AcDbDiametricDimension
 15
634.1223844456
 25
293.8487996533
  0
DIMENSION
  5
34B
100
AcDbEntity
  8
0
100
AcDbDimension
 62
2
  6
CONTINUOUS
  2
*D18
 10
559.9141184429
 20
377.2558131459
 11
577.2567005147
 21
380.378946751
 70
160
 71
1
 42
6.0
  1
M<>        
  3
DIMSTYLE_5
100
AcDbAlignedDimension
 13
565.9100045802
 23
346.5733647111
 14
559.9100045263
 24
346.5733647111
 50
179.9923177559
100
AcDbRotatedDimension
  0
DIMENSION
  5
34C
100
AcDbEntity
  8
0
100
AcDbDimension
 62
2
  6
CONTINUOUS
  2
*D19
 10
391.3972876832
 20
306.7872800843
 11
406.8387901442
 21
278.5335844719
 70
164
 71
1
 42
0.8
  1
<>
  3
DIMSTYLE_8
100
AcDbRadialDimension
 15
391.0835683434
 25
307.5232013952
  0
DIMENSION
  5
34D
100
AcDbEntity
  8
0
100
AcDbDimension
 62
2
  6
CONTINUOUS
  2
*D20
 10
361.2380277169
 20
350.5872800843
 11
359.4688060197
 21
287.8962981031
 70
160
 71
2
 42
70.0
  1
%%c<>
  3
DIMSTYLE_2
100
AcDbAlignedDimension
 13
356.2380277169
 23
280.5872800843
 14
356.2380277169
 24
350.5872800843
 50
90.0
100
AcDbRotatedDimension
  0
DIMENSION
  5
34E
100
AcDbEntity
  8
0
100
AcDbDimension
 62
2
  6
CONTINUOUS
  2
*D21
 10
382.5972876832
 20
407.253946751
 11
347.3234781594
 21
410.378946751
 70
160
 71
2
 42
64.0
  3
DIMSTYLE_2
100
AcDbAlignedDimension
 13
318.5972876832
 23
346.4749876036
 14
382.5972876832
 24
351.4206134176
100
AcDbRotatedDimension
  0
DIMENSION
  5
34F
100
AcDbEntity
  8
0
100
AcDbDimension
 62
2
  6
CONTINUOUS
  2
*D22
 10
382.5972876832
 20
258.9206134176
 11
397.0126947492
 21
262.0456134176
 70
160
 71
1
 42
3.0
  3
DIMSTYLE_5
100
AcDbAlignedDimension
 13
385.5972876832
 23
288.753946751
 14
382.5972876832
 24
288.753946751
 50
180.0
100
AcDbRotatedDimension
  0
DIMENSION
  5
350
100
AcDbEntity
  8
0
100
AcDbDimension
 62
2
  6
CONTINUOUS
  2
*D23
 10
468.5972876832
 20
341.5872800843
 11
466.7947271752
 21
312.9487482646
 70
160
 71
2
 42
52.0
  1
%%c<>
  3
DIMSTYLE_2
100
AcDbAlignedDimension
 13
388.2639543498
 23
289.5872800843
 14
388.2608684478
 24
341.5872800843
 50
90.0
100
AcDbRotatedDimension
  0
DIMENSION
  5
351
100
AcDbEntity
  8
0
100
AcDbDimension
 62
2
  6
CONTINUOUS
  2
*D24
 10
85.6244497608
 20
331.6569652801
 11
54.3059078827
 21
349.5377244807
 70
163
 71
3
 42
62.0
  1
    <>
  3
DIMSTYLE_6
100
AcDbDiametricDimension
 15
138.6438883738
 25
299.5175948885
  0
DIMENSION
  5
352
100
AcDbEntity
  8
0
100
AcDbDimension
 62
2
  6
CONTINUOUS
  2
*D25
 10
145.7163591067
 20
255.6337515672
 11
105.274957933
 21
258.4509146289
 70
160
 71
3
 42
5.0
  1
M<>
  3
DIMSTYLE_5
100
AcDbAlignedDimension
 13
140.6375985546
 23
313.0838552951
 14
145.6375938565
 24
313.0907095716
 50
0.0785442484
100
AcDbRotatedDimension
  0
DIMENSION
  5
353
100
AcDbEntity
  8
0
100
AcDbDimension
 62
2
  6
CONTINUOUS
  2
*D26
 10
384.5972876832
 20
290.5872800843
 11
394.561488507
 21
274.5293504708
 70
164
 71
1
 42
1.0
  1
<>
  3
DIMSTYLE_8
100
AcDbRadialDimension
 15
384.9767783498
 25
289.662084519
  0
MTEXT
  5
354
100
AcDbEntity
  8
0
100
AcDbMText
 62
5
  6
CONTINUOUS
  7
STANDARD
 71
1
 72
1
 10
244.6313044969
 20
325.4128415999
 30
0.0
 11
0.0
 21
1.0
 31
0.0
 44
0.9
  1
(for shaft diam. tol. j6/k6)
 40
4.1666666667
 41
77.380952381
  0
MTEXT
  5
355
100
AcDbEntity
  8
0
100
AcDbMText
 62
5
  6
CONTINUOUS
  7
STANDARD
 71
1
 72
1
 10
433.3176039473
 20
274.6942129733
 30
0.0
 11
0.0
 21
1.0
 31
0.0
 44
0.9
  1
k7
 40
4.1666666667
 41
6.25
  0
MTEXT
  5
356
100
AcDbEntity
  8
0
100
AcDbMText
 62
5
  6
CONTINUOUS
  7
STANDARD
 71
1
 72
1
 10
463.1684090987
 20
325.0374795302
 30
0.0
 11
0.0
 21
1.0
 31
0.0
 44
0.9
  1
h7
 40
4.1666666667
 41
6.25
  0
LEADER
  5
357
100
AcDbEntity
  8
0
100
AcDbLeader
 62
2
  6
CONTINUOUS
  3
STANDARD
 71
1
 72
0
 73
0
 75
0
 40
4.1666666667
 41
37.8968253968
 76
3
 10
407.2654613147
 20
324.2404087681
 30
0.0
 10
429.8343977179
 20
407.253946751
 30
0.0
 10
438.1677310513
 20
407.253946751
 30
0.0
340
358
1001
ACAD
1000
DSTYLE
1002
{
1070
77
1070
0
1070
341
1005
213
1002
}
  0
MTEXT
  5
358
102
{ACAD_REACTORS
330
357
102
}
100
AcDbEntity
  8
0
100
AcDbMText
 62
5
  6
CONTINUOUS
  7
STANDARD
 71
1
 72
1
 10
438.1677310513
 20
409.3372800843
 30
0.0
 11
1.0
 21
0.0
 31
0.0
 44
0.9
  1
Key DIN 6885\PA 5x5x25
 40
4.1666666667
 41
37.8968253968
  0
LEADER
  5
359
100
AcDbEntity
  8
0
100
AcDbLeader
 62
2
  6
CONTINUOUS
  3
STANDARD
 71
1
 72
0
 73
0
 75
0
 40
4.1666666667
 41
57.8373015873
 76
4
 10
418.5966400816
 20
315.5842956247
 30
0.0
 10
432.8465785496
 20
314.0746854945
 30
0.0
 10
413.4756946567
 20
233.9206134176
 30
0.0
 10
405.1423613233
 20
233.9206134176
 30
0.0
340
35A
1001
ACAD
1000
DSTYLE
1002
{
1070
77
1070
0
1002
}
  0
MTEXT
  5
35A
102
{ACAD_REACTORS
330
359
102
}
100
AcDbEntity
  8
0
100
AcDbMText
 62
5
  6
CONTINUOUS
  7
STANDARD
 71
3
 72
1
 10
405.1423613233
 20
236.003946751
 30
0.0
 11
1.0
 21
0.0
 31
0.0
 44
0.9
  1
Centre bore DIN 332\PDR M5x12,5
 40
4.1666666667
 41
57.8373015873
  0
MTEXT
  5
35B
100
AcDbEntity
  8
0
100
AcDbMText
 62
5
  6
CONTINUOUS
  7
STANDARD
 71
1
 72
1
 10
45.952164095
 20
361.7337183814
 30
0.0
 11
0.8191520443
 21
-0.5735764364
 31
0.0
 44
0.9
  1
pcd.
 40
4.1666666667
 41
11.0119047619
  0
MTEXT
  5
35C
100
AcDbEntity
  8
0
100
AcDbMText
 62
5
  6
CONTINUOUS
  7
STANDARD
 71
1
 72
1
 10
114.2486512931
 20
260.9828717231
 30
0.0
 11
1.0
 21
0.0
 31
0.0
 44
0.9
  1
x8 deep
 40
4.1666666667
 41
21.4285714286
  0
MTEXT
  5
35D
100
AcDbEntity
  8
0
100
AcDbMText
 62
5
  6
CONTINUOUS
  7
STANDARD
 71
1
 72
1
 10
583.0987794302
 20
382.3665345324
 30
0.0
 11
1.0
 21
0.0
 31
0.0
 44
0.9
  1
x15 deep
 40
4.1666666667
 41
23.5119047619
  0
MTEXT
  5
35E
100
AcDbEntity
  8
0
100
AcDbMText
 62
5
  6
CONTINUOUS
  7
STANDARD
 71
1
 72
1
 10
527.0824072024
 20
359.5975567614
 30
0.0
 11
0.8746197071
 21
-0.4848096202
 31
0.0
 44
0.9
  1
pcd.
 40
4.1666666667
 41
11.0119047619
  0
LINE
  5
35F
100
AcDbEntity
  8
0
100
AcDbLine
 62
2
  6
CONTINUOUS
 10
7.9886872457
 20
486.7450659148
 11
7.9886872457
 21
8.3919031154
  0
LINE
  5
360
100
AcDbEntity
  8
0
100
AcDbLine
 62
2
  6
CONTINUOUS
 10
7.9886872457
 20
8.3919031154
 11
691.851346673
 21
8.3919031154
  0
LINE
  5
361
100
AcDbEntity
  8
0
100
AcDbLine
 62
2
  6
CONTINUOUS
 10
691.851346673
 20
486.7450659148
 11
7.9886872457
 21
486.7450659148
  0
LINE
  5
362
100
AcDbEntity
  8
0
100
AcDbLine
 62
2
  6
CONTINUOUS
 10
691.851346673
 20
8.3919031154
 11
691.851346673
 21
486.7450659148
  0
LINE
  5
363
100
AcDbEntity
  8
0
100
AcDbLine
 62
7
  6
CONTINUOUS
 10
277.5972876832
 20
275.5872800843
 11
277.5972876832
 21
355.5872800843
  0
LINE
  5
364
100
AcDbEntity
  8
BLATT2_3D_ANSICHT
100
AcDbLine
 62
2
  6
CENTER
 10
282.8972876832
 20
350.5872800843
 11
282.8972876832
 21
280.5872800843
  0
LINE
  5
365
100
AcDbEntity
  8
BEZUGSACHSEN
100
AcDbLine
 62
2
  6
CENTER
 10
298.5972876832
 20
301.5872800843
 11
298.5972876832
 21
291.5872800843
  0
LINE
  5
366
100
AcDbEntity
  8
BEZUGSACHSEN
100
AcDbLine
 62
2
  6
CENTER
 10
298.5972876832
 20
301.5872800843
 11
298.5972876832
 21
311.5872800843
  0
LINE
  5
367
100
AcDbEntity
  8
0
100
AcDbLine
 62
7
  6
CONTINUOUS
 10
296.2878866064
 20
301.5872800843
 11
297.4425871448
 21
299.5872800843
  0
LINE
  5
368
100
AcDbEntity
  8
0
100
AcDbLine
 62
7
  6
CONTINUOUS
 10
300.9066887599
 20
301.5872800843
 11
299.7519882216
 21
303.5872800843
  0
LINE
  5
369
100
AcDbEntity
  8
0
100
AcDbLine
 62
7
  6
CONTINUOUS
 10
308.5972876832
 20
275.5872800843
 11
308.5972876832
 21
355.5872800843
  0
LINE
  5
36A
100
AcDbEntity
  8
FASEN
100
AcDbLine
 62
7
  6
CONTINUOUS
 10
318.5972876832
 20
345.4872800843
 11
318.6972876822
 21
345.5872800834
  0
LINE
  5
36B
100
AcDbEntity
  8
0
100
AcDbLine
 62
7
  6
CONTINUOUS
 10
308.5972876832
 20
275.5872800843
 11
277.5972876832
 21
275.5872800843
  0
LINE
  5
36C
100
AcDbEntity
  8
0
100
AcDbLine
 62
7
  6
CONTINUOUS
 10
318.5972876832
 20
275.6372800843
 11
308.5972876832
 21
275.6372800843
  0
LINE
  5
36D
100
AcDbEntity
  8
FASEN
100
AcDbLine
 62
7
  6
CONTINUOUS
 10
318.5972876832
 20
285.6872800843
 11
318.6972876827
 21
285.5872800848
  0
LINE
  5
36E
100
AcDbEntity
  8
0
100
AcDbLine
 62
7
  6
CONTINUOUS
 10
297.4425871448
 20
303.5872800843
 11
296.2878866064
 21
301.5872800843
  0
LINE
  5
36F
100
AcDbEntity
  8
0
100
AcDbLine
 62
7
  6
CONTINUOUS
 10
299.7519882216
 20
299.5872800843
 11
300.9066887599
 21
301.5872800843
  0
LINE
  5
370
100
AcDbEntity
  8
0
100
AcDbLine
 62
7
  6
CONTINUOUS
 10
336.2380277169
 20
350.5872800843
 11
329.0972876832
 21
345.5872800843
  0
LINE
  5
371
100
AcDbEntity
  8
0
100
AcDbLine
 62
7
  6
CONTINUOUS
 10
308.5972876832
 20
280.0591222373
 11
277.5972876832
 21
280.0591222373
  0
LINE
  5
372
100
AcDbEntity
  8
0
100
AcDbLine
 62
7
  6
CONTINUOUS
 10
318.5972876832
 20
280.0781263349
 11
308.5972876832
 21
280.0781263349
  0
LINE
  5
373
100
AcDbEntity
  8
0
100
AcDbLine
 62
7
  6
CONTINUOUS
 10
382.5972876832
 20
280.5872800843
 11
336.2380277169
 21
280.5872800843
  0
LINE
  5
374
100
AcDbEntity
  8
BLATT2_3D_ANSICHT
100
AcDbLine
 62
2
  6
CENTER
 10
282.8972876832
 20
280.5872800843
 11
277.5972876832
 21
280.5872800843
  0
LINE
  5
375
100
AcDbEntity
  8
0
100
AcDbLine
 62
7
  6
CONTINUOUS
 10
336.2380277169
 20
280.5872800843
 11
329.0972876832
 21
285.5872800843
  0
LINE
  5
376
100
AcDbEntity
  8
BLATT2_3D_ANSICHT
100
AcDbLine
 62
2
  6
CENTER
 10
317.5972876832
 20
325.0872800843
 11
317.5972876832
 21
306.0872800843
  0
LINE
  5
377
100
AcDbEntity
  8
0
100
AcDbLine
 62
7
  6
CONTINUOUS
 10
318.5972876832
 20
355.5372800843
 11
318.5972876832
 21
275.6372800843
  0
LINE
  5
378
100
AcDbEntity
  8
FASEN
100
AcDbLine
 62
7
  6
CONTINUOUS
 10
318.6972876832
 20
285.5872800843
 11
318.6972876832
 21
345.5872800843
  0
LINE
  5
379
100
AcDbEntity
  8
0
100
AcDbLine
 62
7
  6
CONTINUOUS
 10
329.0972876832
 20
285.5872800843
 11
327.9472876832
 21
285.5872800843
  0
LINE
  5
37A
100
AcDbEntity
  8
0
100
AcDbLine
 62
7
  6
CONTINUOUS
 10
318.9472876832
 20
285.5872800843
 11
318.6972876832
 21
285.5872800843
  0
LINE
  5
37B
100
AcDbEntity
  8
0
100
AcDbLine
 62
7
  6
CONTINUOUS
 10
322.7255998467
 20
316.8372800843
 11
322.0039120102
 21
315.5872800843
  0
LINE
  5
37C
100
AcDbEntity
  8
0
100
AcDbLine
 62
7
  6
CONTINUOUS
 10
384.5972876832
 20
289.5872800843
 11
382.5972876832
 21
289.5872800843
  0
LINE
  5
37D
100
AcDbEntity
  8
0
100
AcDbLine
 62
7
  6
CONTINUOUS
 10
322.0039120102
 20
315.5872800843
 11
322.7255998467
 21
314.3372800843
  0
LINE
  5
37E
100
AcDbEntity
  8
0
100
AcDbLine
 62
7
  6
CONTINUOUS
 10
329.0972876832
 20
345.5872800843
 11
329.0972876832
 21
285.5872800843
  0
LINE
  5
37F
100
AcDbEntity
  8
0
100
AcDbLine
 62
7
  6
CONTINUOUS
 10
324.1689755197
 20
314.3372800843
 11
324.8906633561
 21
315.5872800843
  0
LINE
  5
380
100
AcDbEntity
  8
0
100
AcDbLine
 62
7
  6
CONTINUOUS
 10
385.5972876832
 20
298.5872800843
 11
387.0972876832
 21
298.5872800843
  0
LINE
  5
381
100
AcDbEntity
  8
0
100
AcDbLine
 62
7
  6
CONTINUOUS
 10
297.4425871448
 20
299.5872800843
 11
299.7519882216
 21
299.5872800843
  0
LINE
  5
382
100
AcDbEntity
  8
0
100
AcDbLine
 62
7
  6
CONTINUOUS
 10
324.8906633561
 20
315.5872800843
 11
324.1689755197
 21
316.8372800843
  0
LINE
  5
383
100
AcDbEntity
  8
0
100
AcDbLine
 62
7
  6
CONTINUOUS
 10
336.2380277169
 20
350.5872800843
 11
336.2380277169
 21
280.5872800843
  0
LINE
  5
384
100
AcDbEntity
  8
0
100
AcDbLine
 62
7
  6
CONTINUOUS
 10
387.0972876832
 20
300.5872800843
 11
390.5972876832
 21
300.5872800843
  0
LINE
  5
385
100
AcDbEntity
  8
BEZUGSACHSEN
100
AcDbLine
 62
2
  6
CENTER
 10
298.5972876832
 20
301.5872800843
 11
288.5972876832
 21
301.5872800843
  0
LINE
  5
386
100
AcDbEntity
  8
BEZUGSACHSEN
100
AcDbLine
 62
2
  6
CENTER
 10
298.5972876832
 20
301.5872800843
 11
308.5972876832
 21
301.5872800843
  0
LINE
  5
387
100
AcDbEntity
  8
0
100
AcDbLine
 62
7
  6
CONTINUOUS
 10
299.7519882216
 20
303.5872800843
 11
297.4425871448
 21
303.5872800843
  0
LINE
  5
388
100
AcDbEntity
  8
BLATT2_3D_ANSICHT
100
AcDbLine
 62
2
  6
CENTER
 10
317.5972876832
 20
306.0872800843
 11
282.8972876832
 21
306.0872800843
  0
LINE
  5
389
100
AcDbEntity
  8
0
100
AcDbLine
 62
7
  6
CONTINUOUS
 10
391.3972876832
 20
307.5872800843
 11
418.0972876832
 21
307.5872800843
  0
LINE
  5
38A
100
AcDbEntity
  8
0
100
AcDbLine
 62
7
  6
CONTINUOUS
 10
322.7255998467
 20
314.3372800843
 11
324.1689755197
 21
314.3372800843
  0
LINE
  5
38B
100
AcDbEntity
  8
TEIL_STARTBEZUEGE
100
AcDbLine
 62
2
  6
CENTER
 10
272.5972876832
 20
315.5872800843
 11
423.5972876836
 21
315.5872800843
  0
LINE
  5
38C
100
AcDbEntity
  8
0
100
AcDbLine
 62
7
  6
CONTINUOUS
 10
324.1689755197
 20
316.8372800843
 11
322.7255998467
 21
316.8372800843
  0
LINE
  5
38D
100
AcDbEntity
  8
BEZUGSACHSEN
100
AcDbLine
 62
7
  6
CONTINUOUS
 10
394.0972876832
 20
323.1866221611
 11
414.0972876832
 21
323.1866221611
  0
LINE
  5
38E
100
AcDbEntity
  8
0
100
AcDbLine
 62
7
  6
CONTINUOUS
 10
391.3972876832
 20
323.5872800843
 11
391.5977031403
 21
323.5872800843
  0
LINE
  5
38F
100
AcDbEntity
  8
0
100
AcDbLine
 62
7
  6
CONTINUOUS
 10
416.5971136022
 20
323.5872800843
 11
418.0972876832
 21
323.5872800843
  0
LINE
  5
390
100
AcDbEntity
  8
BLATT2_3D_ANSICHT
100
AcDbLine
 62
2
  6
CENTER
 10
317.5972876832
 20
325.0872800843
 11
282.8972876832
 21
325.0872800843
  0
LINE
  5
391
100
AcDbEntity
  8
BEZUGSACHSEN
100
AcDbLine
 62
7
  6
CONTINUOUS
 10
391.5974865506
 20
325.5872800843
 11
416.5970888157
 21
325.5872800843
  0
LINE
  5
392
100
AcDbEntity
  8
0
100
AcDbLine
 62
7
  6
CONTINUOUS
 10
387.0972876832
 20
330.5872800843
 11
390.5972876832
 21
330.5872800843
  0
LINE
  5
393
100
AcDbEntity
  8
0
100
AcDbLine
 62
7
  6
CONTINUOUS
 10
385.5972876832
 20
332.5872800843
 11
387.0972876832
 21
332.5872800843
  0
LINE
  5
394
100
AcDbEntity
  8
0
100
AcDbLine
 62
7
  6
CONTINUOUS
 10
384.5972876832
 20
341.5872800843
 11
382.5972876832
 21
341.5872800843
  0
LINE
  5
395
100
AcDbEntity
  8
0
100
AcDbLine
 62
7
  6
CONTINUOUS
 10
329.0972876832
 20
345.5872800843
 11
327.9472876832
 21
345.5872800843
  0
LINE
  5
396
100
AcDbEntity
  8
0
100
AcDbLine
 62
7
  6
CONTINUOUS
 10
318.9472876832
 20
345.5872800843
 11
318.6972876832
 21
345.5872800843
  0
LINE
  5
397
100
AcDbEntity
  8
0
100
AcDbLine
 62
7
  6
CONTINUOUS
 10
382.5972876832
 20
350.5872800843
 11
382.5972876832
 21
280.5872800843
  0
LINE
  5
398
100
AcDbEntity
  8
RUNDUNGEN
100
AcDbLine
 62
9
  6
CONTINUOUS
 10
384.5972876832
 20
289.5872800843
 11
384.5972876832
 21
341.5872800843
  0
LINE
  5
399
100
AcDbEntity
  8
RUNDUNGEN
100
AcDbLine
 62
7
  6
CONTINUOUS
 10
385.5972876832
 20
290.5872800843
 11
385.5972876832
 21
340.5872800843
  0
LINE
  5
39A
100
AcDbEntity
  8
0
100
AcDbLine
 62
7
  6
CONTINUOUS
 10
387.0972876832
 20
298.5874185598
 11
387.0972876832
 21
332.5871416087
  0
LINE
  5
39B
100
AcDbEntity
  8
0
100
AcDbLine
 62
7
  6
CONTINUOUS
 10
382.5972876832
 20
350.5872800843
 11
336.2380277169
 21
350.5872800843
  0
LINE
  5
39C
100
AcDbEntity
  8
BLATT2_3D_ANSICHT
100
AcDbLine
 62
2
  6
CENTER
 10
277.5972876832
 20
350.5872800843
 11
282.8972876832
 21
350.5872800843
  0
LINE
  5
39D
100
AcDbEntity
  8
0
100
AcDbLine
 62
7
  6
CONTINUOUS
 10
318.5972876832
 20
351.0964338337
 11
308.5972876832
 21
351.0964338337
  0
LINE
  5
39E
100
AcDbEntity
  8
0
100
AcDbLine
 62
7
  6
CONTINUOUS
 10
308.5972876832
 20
351.1154379313
 11
277.5972876832
 21
351.1154379313
  0
LINE
  5
39F
100
AcDbEntity
  8
0
100
AcDbLine
 62
7
  6
CONTINUOUS
 10
390.5972876832
 20
300.5874022686
 11
390.5972876832
 21
330.5871579
  0
LINE
  5
3A0
100
AcDbEntity
  8
RUNDUNGEN
100
AcDbLine
 62
9
  6
CONTINUOUS
 10
391.3972876832
 20
323.5872800843
 11
391.3972876832
 21
307.5872800843
  0
LINE
  5
3A1
100
AcDbEntity
  8
BEZUGSACHSEN
100
AcDbLine
 62
7
  6
CONTINUOUS
 10
391.5972876832
 20
323.5871526484
 11
391.5972876832
 21
325.5872800843
  0
LINE
  5
3A2
100
AcDbEntity
  8
0
100
AcDbLine
 62
7
  6
CONTINUOUS
 10
318.5972876832
 20
355.5372800843
 11
308.5972876832
 21
355.5372800843
  0
LINE
  5
3A3
100
AcDbEntity
  8
0
100
AcDbLine
 62
7
  6
CONTINUOUS
 10
308.5972876832
 20
355.5872800843
 11
277.5972876832
 21
355.5872800843
  0
LINE
  5
3A4
100
AcDbEntity
  8
BEZUGSACHSEN
100
AcDbLine
 62
9
  6
CONTINUOUS
 10
394.0972876832
 20
323.1866221611
 11
394.0972876832
 21
325.5872800843
  0
LINE
  5
3A5
100
AcDbEntity
  8
FASEN
100
AcDbLine
 62
7
  6
CONTINUOUS
 10
418.5972876832
 20
308.0872800843
 11
418.0972876832
 21
307.5872800843
  0
LINE
  5
3A6
100
AcDbEntity
  8
FASEN
100
AcDbLine
 62
7
  6
CONTINUOUS
 10
418.5972876832
 20
323.0872800843
 11
418.0972876832
 21
323.5872800843
  0
LINE
  5
3A7
100
AcDbEntity
  8
BEZUGSACHSEN
100
AcDbLine
 62
9
  6
CONTINUOUS
 10
414.0972876832
 20
323.1866221611
 11
414.0972876832
 21
325.5872800843
  0
LINE
  5
3A8
100
AcDbEntity
  8
BEZUGSACHSEN
100
AcDbLine
 62
7
  6
CONTINUOUS
 10
416.5972876832
 20
323.5872266993
 11
416.5972876832
 21
325.5872800843
  0
LINE
  5
3A9
100
AcDbEntity
  8
FASEN
100
AcDbLine
 62
7
  6
CONTINUOUS
 10
418.0972876832
 20
307.5872800843
 11
418.0972876832
 21
323.5872800843
  0
LINE
  5
3AA
100
AcDbEntity
  8
FASEN
100
AcDbLine
 62
7
  6
CONTINUOUS
 10
418.5972876832
 20
308.0872800843
 11
418.5972876832
 21
323.0872800843
  0
LINE
  5
3AB
100
AcDbEntity
  8
0
100
AcDbLine
 62
7
  6
CONTINUOUS
 10
72.1341690673
 20
280.0591222373
 11
72.1341690673
 21
351.1154379313
  0
LINE
  5
3AC
100
AcDbEntity
  8
0
100
AcDbLine
 62
7
  6
CONTINUOUS
 10
72.1841690673
 20
351.0964338337
 11
72.1841690673
 21
280.0781263349
  0
LINE
  5
3AD
100
AcDbEntity
  8
0
100
AcDbLine
 62
7
  6
CONTINUOUS
 10
147.6623269142
 20
275.5872800843
 11
76.6060112203
 21
275.5872800843
  0
LINE
  5
3AE
100
AcDbEntity
  8
0
100
AcDbLine
 62
7
  6
CONTINUOUS
 10
76.6250153178
 20
275.6372800843
 11
147.6433228167
 21
275.6372800843
  0
LINE
  5
3AF
100
AcDbEntity
  8
BEZUGSACHSEN
100
AcDbLine
 62
7
  6
CONTINUOUS
 10
109.6341690673
 20
323.1866221611
 11
109.6341690673
 21
325.5872800843
  0
LINE
  5
3B0
100
AcDbEntity
  8
TEIL_STARTBEZUEGE
100
AcDbLine
 62
2
  6
CENTER
 10
112.1341690673
 20
267.253946751
 11
112.1341690673
 21
363.9206134176
  0
LINE
  5
3B1
100
AcDbEntity
  8
TEIL_STARTBEZUEGE
100
AcDbLine
 62
2
  6
CENTER
 10
160.4675024006
 20
315.5872800843
 11
63.8008357339
 21
315.5872800843
  0
LINE
  5
3B2
100
AcDbEntity
  8
BEZUGSACHSEN
100
AcDbLine
 62
7
  6
CONTINUOUS
 10
114.6341690673
 20
323.1866221611
 11
114.6341690673
 21
325.5872800843
  0
LINE
  5
3B3
100
AcDbEntity
  8
BEZUGSACHSEN
100
AcDbLine
 62
7
  6
CONTINUOUS
 10
109.6341690673
 20
325.5872800843
 11
114.6341690673
 21
325.5872800843
  0
LINE
  5
3B4
100
AcDbEntity
  8
0
100
AcDbLine
 62
7
  6
CONTINUOUS
 10
152.0841690673
 20
280.0781263349
 11
152.0841690673
 21
351.0964338337
  0
LINE
  5
3B5
100
AcDbEntity
  8
0
100
AcDbLine
 62
7
  6
CONTINUOUS
 10
152.1341690673
 20
351.1154379313
 11
152.1341690673
 21
280.0591222373
  0
LINE
  5
3B6
100
AcDbEntity
  8
0
100
AcDbLine
 62
7
  6
CONTINUOUS
 10
147.6433228167
 20
355.5372800843
 11
76.6250153178
 21
355.5372800843
  0
LINE
  5
3B7
100
AcDbEntity
  8
0
100
AcDbLine
 62
7
  6
CONTINUOUS
 10
76.6060112203
 20
355.5872800843
 11
147.6623269142
 21
355.5872800843
  0
LINE
  5
3B8
100
AcDbEntity
  8
0
100
AcDbLine
 62
7
  6
CONTINUOUS
 10
554.7213886644
 20
351.1154379313
 11
554.7213886644
 21
280.0591222373
  0
LINE
  5
3B9
100
AcDbEntity
  8
0
100
AcDbLine
 62
7
  6
CONTINUOUS
 10
559.1932308174
 20
275.5872800843
 11
630.2495465114
 21
275.5872800843
  0
LINE
  5
3BA
100
AcDbEntity
  8
BEZUGSACHSEN
100
AcDbLine
 62
2
  6
CENTER
 10
562.901583511
 20
347.4070852377
 11
562.901583511
 21
343.0710856446
  0
LINE
  5
3BB
100
AcDbEntity
  8
BEZUGSACHSEN
100
AcDbLine
 62
2
  6
CENTER
 10
562.901583511
 20
283.7674749309
 11
562.901583511
 21
279.3612745327
  0
LINE
  5
3BC
100
AcDbEntity
  8
BEZUGSACHSEN
100
AcDbLine
 62
2
  6
CENTER
 10
562.901583511
 20
283.7674749309
 11
562.901583511
 21
288.1418814756
  0
LINE
  5
3BD
100
AcDbEntity
  8
BEZUGSACHSEN
100
AcDbLine
 62
2
  6
CENTER
 10
562.901583511
 20
347.4070852377
 11
562.901583511
 21
351.7112028764
  0
LINE
  5
3BE
100
AcDbEntity
  8
0
100
AcDbLine
 62
7
  6
CONTINUOUS
 10
564.5050026891
 20
305.5501527863
 11
564.5050026891
 21
302.6634014404
  0
LINE
  5
3BF
100
AcDbEntity
  8
BEZUGSACHSEN
100
AcDbLine
 62
2
  6
CENTER
 10
626.5411938178
 20
283.7674749309
 11
622.1829922898
 21
283.7674749309
  0
LINE
  5
3C0
100
AcDbEntity
  8
BEZUGSACHSEN
100
AcDbLine
 62
2
  6
CENTER
 10
562.901583511
 20
283.7674749309
 11
558.5146232417
 21
283.7674749309
  0
LINE
  5
3C1
100
AcDbEntity
  8
BEZUGSACHSEN
100
AcDbLine
 62
2
  6
CENTER
 10
562.901583511
 20
283.7674749309
 11
567.2484002809
 21
283.7674749309
  0
LINE
  5
3C2
100
AcDbEntity
  8
BEZUGSACHSEN
100
AcDbLine
 62
2
  6
CENTER
 10
626.5411938178
 20
283.7674749309
 11
630.7996945698
 21
283.7674749309
  0
LINE
  5
3C3
100
AcDbEntity
  8
0
100
AcDbLine
 62
7
  6
CONTINUOUS
 10
604.7585159624
 20
285.370894109
 11
607.6452673083
 21
285.370894109
  0
LINE
  5
3C4
100
AcDbEntity
  8
0
100
AcDbLine
 62
7
  6
CONTINUOUS
 10
569.5050026891
 20
302.6634014404
 11
569.5050026891
 21
305.5501527863
  0
LINE
  5
3C5
100
AcDbEntity
  8
0
100
AcDbLine
 62
7
  6
CONTINUOUS
 10
581.7975100205
 20
345.8036660596
 11
580.3541343475
 21
343.3036660596
  0
LINE
  5
3C6
100
AcDbEntity
  8
0
100
AcDbLine
 62
7
  6
CONTINUOUS
 10
607.6452673083
 20
290.370894109
 11
604.7585159624
 21
290.370894109
  0
LINE
  5
3C7
100
AcDbEntity
  8
0
100
AcDbLine
 62
7
  6
CONTINUOUS
 10
564.5050026891
 20
302.6634014404
 11
567.0050026891
 21
301.2200257674
  0
LINE
  5
3C8
100
AcDbEntity
  8
0
100
AcDbLine
 62
7
  6
CONTINUOUS
 10
584.6842613664
 20
340.8036660596
 11
586.1276370394
 21
343.3036660596
  0
LINE
  5
3C9
100
AcDbEntity
  8
0
100
AcDbLine
 62
7
  6
CONTINUOUS
 10
569.5050026891
 20
305.5501527863
 11
567.0050026891
 21
306.9935284593
  0
LINE
  5
3CA
100
AcDbEntity
  8
0
100
AcDbLine
 62
7
  6
CONTINUOUS
 10
602.8615366117
 20
297.3372800843
 11
606.2213886644
 21
297.3372800843
  0
LINE
  5
3CB
100
AcDbEntity
  8
0
100
AcDbLine
 62
7
  6
CONTINUOUS
 10
567.0050026891
 20
306.9935284593
 11
564.5050026891
 21
305.5501527863
  0
LINE
  5
3CC
100
AcDbEntity
  8
0
100
AcDbLine
 62
7
  6
CONTINUOUS
 10
603.3151402894
 20
287.870894109
 11
604.7585159624
 21
285.370894109
  0
LINE
  5
3CD
100
AcDbEntity
  8
0
100
AcDbLine
 62
7
  6
CONTINUOUS
 10
593.9713886644
 20
306.1169316219
 11
593.9713886644
 21
295.6013475316
  0
LINE
  5
3CE
100
AcDbEntity
  8
TEIL_STARTBEZUEGE
100
AcDbLine
 62
2
  6
CENTER
 10
594.7213886644
 20
267.253946751
 11
594.7213886644
 21
363.9206134176
  0
LINE
  5
3CF
100
AcDbEntity
  8
0
100
AcDbLine
 62
7
  6
CONTINUOUS
 10
567.0050026891
 20
301.2200257674
 11
569.5050026891
 21
302.6634014404
  0
LINE
  5
3D0
100
AcDbEntity
  8
TEIL_STARTBEZUEGE
100
AcDbLine
 62
2
  6
CENTER
 10
546.3880553311
 20
315.5872800843
 11
643.0547219977
 21
315.5872800843
  0
LINE
  5
3D1
100
AcDbEntity
  8
0
100
AcDbLine
 62
7
  6
CONTINUOUS
 10
609.0886429813
 20
287.870894109
 11
607.6452673083
 21
290.370894109
  0
LINE
  5
3D2
100
AcDbEntity
  8
0
100
AcDbLine
 62
7
  6
CONTINUOUS
 10
595.4713886644
 20
306.1169316219
 11
595.4713886644
 21
295.6013475316
  0
LINE
  5
3D3
100
AcDbEntity
  8
0
100
AcDbLine
 62
7
  6
CONTINUOUS
 10
622.4377746398
 20
329.9545344012
 11
619.9377746398
 21
328.5111587282
  0
LINE
  5
3D4
100
AcDbEntity
  8
0
100
AcDbLine
 62
7
  6
CONTINUOUS
 10
580.3541343475
 20
343.3036660596
 11
581.7975100205
 21
340.8036660596
  0
LINE
  5
3D5
100
AcDbEntity
  8
0
100
AcDbLine
 62
7
  6
CONTINUOUS
 10
622.4377746398
 20
324.1810317093
 11
624.9377746398
 21
325.6244073823
  0
LINE
  5
3D6
100
AcDbEntity
  8
0
100
AcDbLine
 62
7
  6
CONTINUOUS
 10
586.1276370394
 20
343.3036660596
 11
584.6842613664
 21
345.8036660596
  0
LINE
  5
3D7
100
AcDbEntity
  8
RUNDUNGEN
100
AcDbLine
 62
9
  6
CONTINUOUS
 10
606.2213886644
 20
299.2485217726
 11
606.2213886644
 21
297.3372800843
  0
LINE
  5
3D8
100
AcDbEntity
  8
RUNDUNGEN
100
AcDbLine
 62
7
  6
CONTINUOUS
 10
606.7213886644
 20
299.60116001
 11
606.7213886644
 21
297.8372800843
  0
LINE
  5
3D9
100
AcDbEntity
  8
0
100
AcDbLine
 62
7
  6
CONTINUOUS
 10
604.7585159624
 20
290.370894109
 11
603.3151402894
 21
287.870894109
  0
LINE
  5
3DA
100
AcDbEntity
  8
0
100
AcDbLine
 62
7
  6
CONTINUOUS
 10
619.9377746398
 20
325.6244073823
 11
622.4377746398
 21
324.1810317093
  0
LINE
  5
3DB
100
AcDbEntity
  8
0
100
AcDbLine
 62
7
  6
CONTINUOUS
 10
619.9377746398
 20
328.5111587282
 11
619.9377746398
 21
325.6244073823
  0
LINE
  5
3DC
100
AcDbEntity
  8
0
100
AcDbLine
 62
7
  6
CONTINUOUS
 10
581.7975100205
 20
340.8036660596
 11
584.6842613664
 21
340.8036660596
  0
LINE
  5
3DD
100
AcDbEntity
  8
0
100
AcDbLine
 62
7
  6
CONTINUOUS
 10
624.9377746398
 20
325.6244073823
 11
624.9377746398
 21
328.5111587282
  0
LINE
  5
3DE
100
AcDbEntity
  8
0
100
AcDbLine
 62
7
  6
CONTINUOUS
 10
607.6452673083
 20
285.370894109
 11
609.0886429813
 21
287.870894109
  0
LINE
  5
3DF
100
AcDbEntity
  8
0
100
AcDbLine
 62
7
  6
CONTINUOUS
 10
584.6842613664
 20
345.8036660596
 11
581.7975100205
 21
345.8036660596
  0
LINE
  5
3E0
100
AcDbEntity
  8
0
100
AcDbLine
 62
7
  6
CONTINUOUS
 10
624.9377746398
 20
328.5111587282
 11
622.4377746398
 21
329.9545344012
  0
LINE
  5
3E1
100
AcDbEntity
  8
BEZUGSACHSEN
100
AcDbLine
 62
2
  6
CENTER
 10
626.5411938178
 20
347.4070852377
 11
626.5411938178
 21
343.0503531796
  0
LINE
  5
3E2
100
AcDbEntity
  8
BEZUGSACHSEN
100
AcDbLine
 62
2
  6
CENTER
 10
626.5411938178
 20
283.7674749309
 11
626.5411938178
 21
279.5649563169
  0
LINE
  5
3E3
100
AcDbEntity
  8
BEZUGSACHSEN
100
AcDbLine
 62
2
  6
CENTER
 10
626.5411938178
 20
283.7674749309
 11
626.5411938178
 21
288.1114137413
  0
LINE
  5
3E4
100
AcDbEntity
  8
BEZUGSACHSEN
100
AcDbLine
 62
2
  6
CENTER
 10
626.5411938178
 20
347.4070852377
 11
626.5411938178
 21
351.6846166735
  0
LINE
  5
3E5
100
AcDbEntity
  8
BEZUGSACHSEN
100
AcDbLine
 62
2
  6
CENTER
 10
626.5411938178
 20
347.4070852377
 11
622.1451559342
 21
347.4070852377
  0
LINE
  5
3E6
100
AcDbEntity
  8
BEZUGSACHSEN
100
AcDbLine
 62
2
  6
CENTER
 10
562.901583511
 20
347.4070852377
 11
558.652165272
 21
347.4070852377
  0
LINE
  5
3E7
100
AcDbEntity
  8
BEZUGSACHSEN
100
AcDbLine
 62
2
  6
CENTER
 10
562.901583511
 20
347.4070852377
 11
567.1986226965
 21
347.4070852377
  0
LINE
  5
3E8
100
AcDbEntity
  8
BEZUGSACHSEN
100
AcDbLine
 62
2
  6
CENTER
 10
626.5411938178
 20
347.4070852377
 11
630.8379568077
 21
347.4070852377
  0
LINE
  5
3E9
100
AcDbEntity
  8
0
100
AcDbLine
 62
7
  6
CONTINUOUS
 10
634.7213886644
 20
280.0591222373
 11
634.7213886644
 21
351.1154379313
  0
LINE
  5
3EA
100
AcDbEntity
  8
0
100
AcDbLine
 62
7
  6
CONTINUOUS
 10
630.2495465114
 20
355.5872800843
 11
559.1932308174
 21
355.5872800843
  0
ARC
  5
3EB
100
AcDbEntity
  8
BEZUGSACHSEN
100
AcDbCircle
 62
7
  6
CONTINUOUS
 10
323.5268499724
 20
255.0842469194
 40
30.8448929812
100
AcDbArc
 50
92.657999329
 51
98.5383107215
  0
ARC
  5
3EC
100
AcDbEntity
  8
BEZUGSACHSEN
100
AcDbCircle
 62
7
  6
CONTINUOUS
 10
323.3680753665
 20
376.0878167279
 40
30.8423721686
100
AcDbArc
 50
272.6359701661
 51
278.5383563586
  0
ARC
  5
3ED
100
AcDbEntity
  8
BEZUGSACHSEN
100
AcDbCircle
 62
7
  6
CONTINUOUS
 10
323.4982970768
 20
375.7944396008
 40
30.5480633193
100
AcDbArc
 50
261.4322572161
 51
267.1516474493
  0
ARC
  5
3EE
100
AcDbEntity
  8
BEZUGSACHSEN
100
AcDbCircle
 62
7
  6
CONTINUOUS
 10
323.4115102082
 20
255.5202093668
 40
30.4072691776
100
AcDbArc
 50
81.4213127502
 51
88.0534930359
  0
ARC
  5
3EF
100
AcDbEntity
  8
BEZUGSACHSEN
100
AcDbCircle
 62
7
  6
CONTINUOUS
 10
323.451960771
 20
375.0959541394
 40
29.8481404651
100
AcDbArc
 50
267.1738559138
 51
268.0472173041
  0
ARC
  5
3F0
100
AcDbEntity
  8
BEZUGSACHSEN
100
AcDbCircle
 62
7
  6
CONTINUOUS
 10
323.4505560126
 20
256.1099696024
 40
29.8167495223
100
AcDbArc
 50
91.7144632939
 51
92.6029555419
  0
ARC
  5
3F1
100
AcDbEntity
  8
BEZUGSACHSEN
100
AcDbCircle
 62
7
  6
CONTINUOUS
 10
323.444144868
 20
375.0618009081
 40
29.8139574484
100
AcDbArc
 50
271.6893814771
 51
272.5806183461
  0
ARC
  5
3F2
100
AcDbEntity
  8
BEZUGSACHSEN
100
AcDbCircle
 62
7
  6
CONTINUOUS
 10
323.4489509917
 20
374.9600998698
 40
29.7122625764
100
AcDbArc
 50
268.0440908169
 51
268.9460251798
  0
ARC
  5
3F3
100
AcDbEntity
  8
BEZUGSACHSEN
100
AcDbCircle
 62
7
  6
CONTINUOUS
 10
323.4473941422
 20
256.2876313244
 40
29.6390728121
100
AcDbArc
 50
88.0724311036
 51
91.718629022
  0
ARC
  5
3F4
100
AcDbEntity
  8
BEZUGSACHSEN
100
AcDbCircle
 62
7
  6
CONTINUOUS
 10
323.4471988831
 20
374.8859167305
 40
29.6380597618
100
AcDbArc
 50
268.9467738352
 51
271.6935040918
  0
CIRCLE
  5
3F5
100
AcDbEntity
  8
BEZUGSACHSEN
100
AcDbCircle
 62
7
  6
CONTINUOUS
 10
323.4472876832
 20
315.5872800843
 40
4.5
  0
CIRCLE
  5
3F6
100
AcDbEntity
  8
BEZUGSACHSEN
100
AcDbCircle
 62
7
  6
CONTINUOUS
 10
298.5972876832
 20
301.5872800843
 40
4.0
  0
ARC
  5
3F7
100
AcDbEntity
  8
RUNDUNGEN
100
AcDbCircle
 62
7
  6
CONTINUOUS
 10
384.5972876832
 20
290.5872800843
 40
1.0
100
AcDbArc
 50
270.0
 51
360.0
  0
ARC
  5
3F8
100
AcDbEntity
  8
RUNDUNGEN
100
AcDbCircle
 62
7
  6
CONTINUOUS
 10
384.5972876832
 20
340.5872800843
 40
1.0
100
AcDbArc
 50
0.0
 51
90.0
  0
ARC
  5
3F9
100
AcDbEntity
  8
RUNDUNGEN
100
AcDbCircle
 62
7
  6
CONTINUOUS
 10
391.3972876832
 20
324.3872800843
 40
0.8
100
AcDbArc
 50
180.0
 51
270.0
  0
ARC
  5
3FA
100
AcDbEntity
  8
RUNDUNGEN
100
AcDbCircle
 62
7
  6
CONTINUOUS
 10
391.3972876832
 20
306.7872800843
 40
0.8
100
AcDbArc
 50
90.0
 51
180.0
  0
ARC
  5
3FB
100
AcDbEntity
  8
0
100
AcDbCircle
 62
2
  6
CONTINUOUS
 10
81.1341690673
 20
315.5872800843
 40
2.5
100
AcDbArc
 50
255.0
 51
195.0
  0
CIRCLE
  5
3FC
100
AcDbEntity
  8
BEZUGSACHSEN
100
AcDbCircle
 62
7
  6
CONTINUOUS
 10
81.1341690673
 20
315.5872800843
 40
2.1
  0
ARC
  5
3FD
100
AcDbEntity
  8
0
100
AcDbCircle
 62
2
  6
CONTINUOUS
 10
112.1341690673
 20
284.5872800843
 40
2.5
100
AcDbArc
 50
255.0
 51
195.0
  0
CIRCLE
  5
3FE
100
AcDbEntity
  8
BEZUGSACHSEN
100
AcDbCircle
 62
7
  6
CONTINUOUS
 10
112.1341690673
 20
284.5872800843
 40
2.1
  0
ARC
  5
3FF
100
AcDbEntity
  8
0
100
AcDbCircle
 62
7
  6
CONTINUOUS
 10
112.1341690673
 20
315.5872800843
 40
53.5
100
AcDbArc
 50
131.6116091861
 51
138.3883908139
  0
ARC
  5
400
100
AcDbEntity
  8
0
100
AcDbCircle
 62
7
  6
CONTINUOUS
 10
112.1341690673
 20
315.5872800843
 40
53.5
100
AcDbArc
 50
221.6116091861
 51
228.3883908139
  0
ARC
  5
401
100
AcDbEntity
  8
0
100
AcDbCircle
 62
7
  6
CONTINUOUS
 10
112.1341690673
 20
315.5872800843
 40
53.5
100
AcDbArc
 50
311.6116091861
 51
318.3883908139
  0
ARC
  5
402
100
AcDbEntity
  8
0
100
AcDbCircle
 62
7
  6
CONTINUOUS
 10
112.1341690673
 20
315.5872800843
 40
53.5
100
AcDbArc
 50
41.6116091861
 51
48.3883908139
  0
ARC
  5
403
100
AcDbEntity
  8
0
100
AcDbCircle
 62
7
  6
CONTINUOUS
 10
112.1341690673
 20
315.5872800843
 40
53.45
100
AcDbArc
 50
221.6319711255
 51
228.3680288745
  0
ARC
  5
404
100
AcDbEntity
  8
0
100
AcDbCircle
 62
7
  6
CONTINUOUS
 10
112.1341690673
 20
315.5872800843
 40
53.45
100
AcDbArc
 50
311.6319711255
 51
318.3680288745
  0
ARC
  5
405
100
AcDbEntity
  8
0
100
AcDbCircle
 62
7
  6
CONTINUOUS
 10
112.1341690673
 20
315.5872800843
 40
53.45
100
AcDbArc
 50
41.6319711255
 51
48.3680288745
  0
ARC
  5
406
100
AcDbEntity
  8
0
100
AcDbCircle
 62
7
  6
CONTINUOUS
 10
112.1341690673
 20
315.5872800843
 40
53.45
100
AcDbArc
 50
131.6319711255
 51
138.3680288745
  0
CIRCLE
  5
407
100
AcDbEntity
  8
0
100
AcDbCircle
 62
7
  6
CONTINUOUS
 10
112.1341690673
 20
315.5872800843
 40
35.0
  0
CIRCLE
  5
408
100
AcDbEntity
  8
BLATT2_3D_ANSICHT
100
AcDbCircle
 62
2
  6
CENTER
 10
112.1341690673
 20
315.5872800843
 40
31.0
  0
CIRCLE
  5
409
100
AcDbEntity
  8
RUNDUNGEN
100
AcDbCircle
 62
7
  6
CONTINUOUS
 10
112.1341690673
 20
315.5872800843
 40
26.0
  0
CIRCLE
  5
40A
100
AcDbEntity
  8
RUNDUNGEN
100
AcDbCircle
 62
9
  6
CONTINUOUS
 10
112.1341690673
 20
315.5872800843
 40
25.0
  0
CIRCLE
  5
40B
100
AcDbEntity
  8
0
100
AcDbCircle
 62
7
  6
CONTINUOUS
 10
112.1341690673
 20
315.5872800843
 40
17.0
  0
CIRCLE
  5
40C
100
AcDbEntity
  8
0
100
AcDbCircle
 62
7
  6
CONTINUOUS
 10
112.1341690673
 20
315.5872800843
 40
15.0
  0
ARC
  5
40D
100
AcDbEntity
  8
RUNDUNGEN
100
AcDbCircle
 62
9
  6
CONTINUOUS
 10
112.1341690673
 20
315.5872800843
 40
8.8
100
AcDbArc
 50
106.5151367073
 51
73.4848633247
  0
CIRCLE
  5
40E
100
AcDbEntity
  8
FASEN
100
AcDbCircle
 62
7
  6
CONTINUOUS
 10
112.1341690673
 20
315.5872800843
 40
8.0
  0
CIRCLE
  5
40F
100
AcDbEntity
  8
FASEN
100
AcDbCircle
 62
7
  6
CONTINUOUS
 10
112.1341690673
 20
315.5872800843
 40
7.5
  0
CIRCLE
  5
410
100
AcDbEntity
  8
BOHRUNGEN
100
AcDbCircle
 62
7
  6
CONTINUOUS
 10
112.1341690673
 20
315.5872800843
 40
4.05
  0
CIRCLE
  5
411
100
AcDbEntity
  8
BOHRUNGEN
100
AcDbCircle
 62
7
  6
CONTINUOUS
 10
112.1341690673
 20
315.5872800843
 40
2.65
  0
ARC
  5
412
100
AcDbEntity
  8
0
100
AcDbCircle
 62
2
  6
CONTINUOUS
 10
112.1341690673
 20
315.5872800843
 40
2.5
100
AcDbArc
 50
255.0
 51
195.0
  0
CIRCLE
  5
413
100
AcDbEntity
  8
BOHRUNGEN
100
AcDbCircle
 62
7
  6
CONTINUOUS
 10
112.1341690673
 20
315.5872800843
 40
2.15
  0
CIRCLE
  5
414
100
AcDbEntity
  8
BOHRUNGEN
100
AcDbCircle
 62
7
  6
CONTINUOUS
 10
112.1341690673
 20
315.5872800843
 40
2.1
  0
ARC
  5
415
100
AcDbEntity
  8
0
100
AcDbCircle
 62
2
  6
CONTINUOUS
 10
112.1341690673
 20
346.5872800843
 40
2.5
100
AcDbArc
 50
255.0
 51
195.0
  0
CIRCLE
  5
416
100
AcDbEntity
  8
BEZUGSACHSEN
100
AcDbCircle
 62
7
  6
CONTINUOUS
 10
112.1341690673
 20
346.5872800843
 40
2.1
  0
ARC
  5
417
100
AcDbEntity
  8
0
100
AcDbCircle
 62
2
  6
CONTINUOUS
 10
143.1341690673
 20
315.5872800843
 40
2.5
100
AcDbArc
 50
255.0
 51
195.0
  0
CIRCLE
  5
418
100
AcDbEntity
  8
BEZUGSACHSEN
100
AcDbCircle
 62
7
  6
CONTINUOUS
 10
143.1341690673
 20
315.5872800843
 40
2.1
  0
CIRCLE
  5
419
100
AcDbEntity
  8
BEZUGSACHSEN
100
AcDbCircle
 62
7
  6
CONTINUOUS
 10
567.0050026891
 20
304.1067771133
 40
5.5
  0
CIRCLE
  5
41A
100
AcDbEntity
  8
0
100
AcDbCircle
 62
7
  6
CONTINUOUS
 10
567.0050026891
 20
304.1067771133
 40
5.0
  0
ARC
  5
41B
100
AcDbEntity
  8
0
100
AcDbCircle
 62
2
  6
CONTINUOUS
 10
562.901583511
 20
283.7674749309
 40
3.0
100
AcDbArc
 50
255.0
 51
195.0
  0
CIRCLE
  5
41C
100
AcDbEntity
  8
BEZUGSACHSEN
100
AcDbCircle
 62
7
  6
CONTINUOUS
 10
562.901583511
 20
283.7674749309
 40
2.5
  0
CIRCLE
  5
41D
100
AcDbEntity
  8
BEZUGSACHSEN
100
AcDbCircle
 62
7
  6
CONTINUOUS
 10
583.2408856935
 20
343.3036660596
 40
5.5
  0
CIRCLE
  5
41E
100
AcDbEntity
  8
0
100
AcDbCircle
 62
7
  6
CONTINUOUS
 10
583.2408856935
 20
343.3036660596
 40
5.0
  0
ARC
  5
41F
100
AcDbEntity
  8
0
100
AcDbCircle
 62
2
  6
CONTINUOUS
 10
562.901583511
 20
347.4070852377
 40
3.0
100
AcDbArc
 50
255.0
 51
195.0
  0
CIRCLE
  5
420
100
AcDbEntity
  8
BEZUGSACHSEN
100
AcDbCircle
 62
7
  6
CONTINUOUS
 10
562.901583511
 20
347.4070852377
 40
2.5
  0
CIRCLE
  5
421
100
AcDbEntity
  8
BEZUGSACHSEN
100
AcDbCircle
 62
7
  6
CONTINUOUS
 10
606.2018916354
 20
287.870894109
 40
5.5
  0
CIRCLE
  5
422
100
AcDbEntity
  8
0
100
AcDbCircle
 62
7
  6
CONTINUOUS
 10
606.2018916354
 20
287.870894109
 40
5.0
  0
ARC
  5
423
100
AcDbEntity
  8
0
100
AcDbCircle
 62
2
  6
CONTINUOUS
 10
626.5411938178
 20
283.7674749309
 40
3.0
100
AcDbArc
 50
255.0
 51
195.0
  0
CIRCLE
  5
424
100
AcDbEntity
  8
BEZUGSACHSEN
100
AcDbCircle
 62
7
  6
CONTINUOUS
 10
626.5411938178
 20
283.7674749309
 40
2.5
  0
ARC
  5
425
100
AcDbEntity
  8
RUNDUNGEN
100
AcDbCircle
 62
7
  6
CONTINUOUS
 10
606.2213886644
 20
297.8372800843
 40
0.5
100
AcDbArc
 50
270.0
 51
360.0
  0
ARC
  5
426
100
AcDbEntity
  8
0
100
AcDbCircle
 62
7
  6
CONTINUOUS
 10
594.7213886644
 20
315.5872800843
 40
53.5
100
AcDbArc
 50
221.6116091861
 51
228.3883908139
  0
ARC
  5
427
100
AcDbEntity
  8
0
100
AcDbCircle
 62
7
  6
CONTINUOUS
 10
594.7213886644
 20
315.5872800843
 40
53.5
100
AcDbArc
 50
311.6116091861
 51
318.3883908139
  0
ARC
  5
428
100
AcDbEntity
  8
0
100
AcDbCircle
 62
7
  6
CONTINUOUS
 10
594.7213886644
 20
315.5872800843
 40
53.5
100
AcDbArc
 50
41.6116091861
 51
48.3883908139
  0
ARC
  5
429
100
AcDbEntity
  8
0
100
AcDbCircle
 62
7
  6
CONTINUOUS
 10
594.7213886644
 20
315.5872800843
 40
53.5
100
AcDbArc
 50
131.6116091861
 51
138.3883908139
  0
CIRCLE
  5
42A
100
AcDbEntity
  8
BLATT1_ANSICHT_ABTRIEB
100
AcDbCircle
 62
2
  6
CENTER
 10
594.7213886644
 20
315.5872800843
 40
45.0
  0
ARC
  5
42B
100
AcDbEntity
  8
BEZUGSACHSEN
100
AcDbCircle
 62
7
  6
CONTINUOUS
 10
594.7213886644
 20
315.5872800843
 40
35.0
100
AcDbArc
 50
206.5522679444
 51
288.4477320556
  0
ARC
  5
42C
100
AcDbEntity
  8
BEZUGSACHSEN
100
AcDbCircle
 62
7
  6
CONTINUOUS
 10
594.7213886644
 20
315.5872800843
 40
35.0
100
AcDbArc
 50
26.5522679444
 51
108.4477320556
  0
ARC
  5
42D
100
AcDbEntity
  8
BEZUGSACHSEN
100
AcDbCircle
 62
7
  6
CONTINUOUS
 10
594.7213886644
 20
315.5872800843
 40
35.0
100
AcDbArc
 50
296.5522679444
 51
18.4477320556
  0
ARC
  5
42E
100
AcDbEntity
  8
BEZUGSACHSEN
100
AcDbCircle
 62
7
  6
CONTINUOUS
 10
594.7213886644
 20
315.5872800843
 40
35.0
100
AcDbArc
 50
116.5522679444
 51
198.4477320556
  0
CIRCLE
  5
42F
100
AcDbEntity
  8
0
100
AcDbCircle
 62
7
  6
CONTINUOUS
 10
594.7213886644
 20
315.5872800843
 40
23.6
  0
CIRCLE
  5
430
100
AcDbEntity
  8
0
100
AcDbCircle
 62
7
  6
CONTINUOUS
 10
594.7213886644
 20
315.5872800843
 40
23.5
  0
CIRCLE
  5
431
100
AcDbEntity
  8
0
100
AcDbCircle
 62
9
  6
CONTINUOUS
 10
594.7213886644
 20
315.5872800843
 40
22.5
  0
ARC
  5
432
100
AcDbEntity
  8
0
100
AcDbCircle
 62
7
  6
CONTINUOUS
 10
594.7213886644
 20
315.5872800843
 40
20.0
100
AcDbArc
 50
272.1490956269
 51
267.8509043731
  0
ARC
  5
433
100
AcDbEntity
  8
0
100
AcDbCircle
 62
7
  6
CONTINUOUS
 10
594.7213886644
 20
315.5872800843
 40
14.0
100
AcDbArc
 50
266.9291131889
 51
273.0708868111
  0
CIRCLE
  5
434
100
AcDbEntity
  8
0
100
AcDbCircle
 62
7
  6
CONTINUOUS
 10
594.7213886644
 20
315.5872800843
 40
9.5
  0
CIRCLE
  5
435
100
AcDbEntity
  8
BEZUGSACHSEN
100
AcDbCircle
 62
7
  6
CONTINUOUS
 10
622.4377746398
 20
327.0677830552
 40
5.5
  0
CIRCLE
  5
436
100
AcDbEntity
  8
0
100
AcDbCircle
 62
7
  6
CONTINUOUS
 10
622.4377746398
 20
327.0677830552
 40
5.0
  0
ARC
  5
437
100
AcDbEntity
  8
0
100
AcDbCircle
 62
2
  6
CONTINUOUS
 10
626.5411938178
 20
347.4070852377
 40
3.0
100
AcDbArc
 50
255.0
 51
195.0
  0
CIRCLE
  5
438
100
AcDbEntity
  8
BEZUGSACHSEN
100
AcDbCircle
 62
7
  6
CONTINUOUS
 10
626.5411938178
 20
347.4070852377
 40
2.5
  0
SPLINE
  5
439
100
AcDbEntity
  8
BEZUGSACHSEN
100
AcDbSpline
 62
7
  6
CONTINUOUS
 70
0
 71
3
 72
22
 73
18
 74
0
 42
0.0000001
 43
0.0000001
 44
0.0000000001
 40
0.0
 40
0.0
 40
0.0
 40
0.0
 40
0.0012630048
 40
0.0050366533
 40
0.0112980879
 40
0.0200244864
 40
0.0311925963
 40
0.0447632282
 40
0.0788764988
 40
0.1218884809
 40
0.1732616435
 40
0.2323779778
 40
0.2986105143
 40
0.449776806
 40
0.6212253708
 40
0.8069322095
 40
1.0
 40
1.0
 40
1.0
 40
1.0
 10
391.5972877
 20
323.587280069
 30
0.0
 10
391.5978252222
 20
323.5882052354
 30
0.0
 10
391.6030690891
 20
323.5838973119
 30
0.0
 10
391.6110764623
 20
323.5839598386
 30
0.0
 10
391.6268983442
 20
323.5775997472
 30
0.0
 10
391.6477958044
 20
323.5718104056
 30
0.0
 10
391.6750184966
 20
323.5632496643
 30
0.0
 10
391.7226913176
 20
323.5489508232
 30
0.0
 10
391.7964142366
 20
323.5271039187
 30
0.0
 10
391.901108721
 20
323.4973547734
 30
0.0
 10
392.0266254284
 20
323.4633007713
 30
0.0
 10
392.1717035776
 20
323.4263145868
 30
0.0
 10
392.3996767487
 20
323.3723752936
 30
0.0
 10
392.7225759357
 20
323.3065717073
 30
0.0
 10
393.1484425961
 20
323.2412821454
 30
0.0
 10
393.6127423231
 20
323.1970184842
 30
0.0
 10
393.9337259955
 20
323.1866221611
 30
0.0
 10
394.0972876832
 20
323.1866221611
 30
0.0
  0
SPLINE
  5
43A
100
AcDbEntity
  8
BEZUGSACHSEN
100
AcDbSpline
 62
7
  6
CONTINUOUS
 70
0
 71
3
 72
21
 73
17
 74
0
 42
0.0000001
 43
0.0000001
 44
0.0000000001
 40
0.0
 40
0.0
 40
0.0
 40
0.0
 40
0.1930676763
 40
0.3787754076
 40
0.5502257102
 40
0.7013925253
 40
0.7676246403
 40
0.8267405841
 40
0.8781134352
 40
0.921125233
 40
0.9552382135
 40
0.9799767985
 40
0.9887029026
 40
0.9949639147
 40
0.9987371778
 40
1.0
 40
1.0
 40
1.0
 40
1.0
 10
414.0972876832
 20
323.1866221611
 30
0.0
 10
414.2608492709
 20
323.1866221611
 30
0.0
 10
414.5818335624
 20
323.1970182047
 30
0.0
 10
415.0461355616
 20
323.2412828967
 30
0.0
 10
415.472004224
 20
323.3065715483
 30
0.0
 10
415.7949064892
 20
323.3723796846
 30
0.0
 10
416.0228766653
 20
323.4263117414
 30
0.0
 10
416.1679604347
 20
323.4633165005
 30
0.0
 10
416.2934564202
 20
323.497313576
 30
0.0
 10
416.3982073939
 20
323.5272246251
 30
0.0
 10
416.4808573186
 20
323.5513349119
 30
0.0
 10
416.5358718738
 20
323.5686871677
 30
0.0
 10
416.5677136276
 20
323.5776304468
 30
0.0
 10
416.5834328935
 20
323.5839162839
 30
0.0
 10
416.5916123458
 20
323.5839643511
 30
0.0
 10
416.5966766282
 20
323.5881582316
 30
0.0
 10
416.597287681
 20
323.5872800822
 30
0.0
  0
ENDSEC
  0
SECTION
  2
OBJECTS
  0
DICTIONARY
  5
C
100
AcDbDictionary
280
0
281
1
  3
ACAD_GROUP
350
D
  3
ACAD_MLINESTYLE
350
17
  3
ACAD_LAYOUT
350
1A
  3
ACAD_PLOTSETTINGS
350
19
  3
ACAD_PLOTSTYLENAME
350
E
  0
DICTIONARY
  5
D
102
{ACAD_REACTORS
330
C
102
}
100
AcDbDictionary
280
0
281
1
  0
ACDBDICTIONARYWDFLT
  5
E
102
{ACAD_REACTORS
330
C
102
}
100
AcDbDictionary
281
1
  3
Normal
350
F
100
AcDbDictionaryWithDefault
340
F
  0
DICTIONARY
  5
17
102
{ACAD_REACTORS
330
C
102
}
100
AcDbDictionary
280
0
281
1
  3
Standard
350
18
  0
DICTIONARY
  5
19
102
{ACAD_REACTORS
330
C
102
}
100
AcDbDictionary
281
1
  0
DICTIONARY
  5
1A
102
{ACAD_REACTORS
330
C
102
}
100
AcDbDictionary
281
1
  3
Model
350
43B
  3
Layout1
350
43C
  0
ACDBPLACEHOLDER
  5
F
102
{ACAD_REACTORS
330
E
102
}
  0
MLINESTYLE
  5
18
102
{ACAD_REACTORS
330
17
102
}
100
AcDbMlineStyle
  2
STANDARD
 70
0
  3

 62
256
 51
90.0
 52
90.0
 71
2
 49
0.5
 62
256
  6
BYLAYER
 49
-0.5
 62
256
  6
BYLAYER
  0
LAYOUT
  5
43B
102
{ACAD_REACTORS
330
1A
102
}
100
AcDbPlotSettings
  1

  2
none_device
  4
ISO_A3_(420.00_x_297.00_MM)
  6

 40
0.0
 41
0.0
 42
0.0
 43
0.0
 44
420.0
 45
297.0
 46
0.0
 47
0.0
 48
0.0
 49
0.0
140
0.0
141
0.0
142
1.0
143
1.0
 70
1024
 72
1
 73
0
 74
0
  7

 75
0
147
1.0
148
0.0
149
0.0
100
AcDbLayout
  1
Model
 70
0
 71
0
 10
0.0
 20
0.0
 11
420.0
 21
297.0
 12
0.0
 22
0.0
 32
0.0
 14
0.0
 24
0.0
 34
0.0
 15
0.0
 25
0.0
 35
0.0
146
0.0
 13
0.0
 23
0.0
 33
0.0
 16
1.0
 26
0.0
 36
0.0
 17
0.0
 27
1.0
 37
0.0
 76
0
330
210
345
0
346
0
  0
LAYOUT
  5
43C
102
{ACAD_REACTORS
330
1A
102
}
100
AcDbPlotSettings
  1

  2
none_device
  4
ISO_A3_(420.00_x_297.00_MM)
  6

 40
0.0
 41
0.0
 42
0.0
 43
0.0
 44
420.0
 45
297.0
 46
0.0
 47
0.0
 48
0.0
 49
0.0
140
0.0
141
0.0
142
1.0
143
1.0
 70
0
 72
1
 73
0
 74
0
  7

 75
0
147
1.0
148
0.0
149
0.0
100
AcDbLayout
  1
Layout1
 70
0
 71
1
 10
0.0
 20
0.0
 11
420.0
 21
297.0
 12
0.0
 22
0.0
 32
0.0
 14
0.0
 24
0.0
 34
0.0
 15
0.0
 25
0.0
 35
0.0
146
0.0
 13
0.0
 23
0.0
 33
0.0
 16
1.0
 26
0.0
 36
0.0
 17
0.0
 27
1.0
 37
0.0
 76
0
330
211
345
0
346
0
  0
ENDSEC
  0
EOF
